[Fshare] [Tài Liệu] Hành Tinh Xanh - The Green Planet 2022 1080p + 2160p HDR REMUX TrueHD 7.1 ~ (Vietsub)

Thảo luận trong 'Phim tài liệu - Documentaries' bắt đầu bởi tremocoivo, 26/3/22.

  1. tremocoivo

    tremocoivo Uploader

    Tham gia ngày:
    25/2/10
    Bài viết:
    3,846
    Đã được cảm ơn:
    103,424
    Giới tính:
    Nam

    Hành Tinh Xanh (2022)
    The Green Planet 2022 1080p + 2160p HDR REMUX TrueHD 7.1 {Sub Việt Mux Sẵn}

    [​IMG]
    https://www.imdb.com/title/tt16986646

    Đi sâu vào một thế giới nơi một cuộc sống duy nhất có thể kéo dài cả nghìn năm, với David Attenborough. Ngắm nhìn những thứ mà mắt thường chưa từng thấy và khám phá đời sống thực vật tuyệt đẹp của Trái đất.


    Mã:
    General
    Complete name               : The.Green.Planet.2022.S01E01.Tropical.Worlds.1080p.BluRay.REMUX.AVC.TrueHD.7.1-Kenobi_Vietsub.mkv
    Format                      : Matroska
    Format version              : Version 4
    File size                   : 12.0 GiB
    
    
    Duration                    : 58 min 16 s
    Overall bit rate mode       : Variable
    Overall bit rate            : 29.5 Mb/s
    Movie name                  : The Green Planet - S01E01 - Tropical Worlds
    Encoded date                : UTC 2022-03-23 15:52:01
    Writing application         : mkvmerge v22.0.0 ('At The End Of The World') 64-bit
    Writing library             : libebml v1.3.9 + libmatroska v1.5.2
    IMDB                        : tt16986646
    TMDB                        : tv/96323
    TVDB                        : 359250
    Video
    ID                          : 1
    Format                      : AVC
    Format/Info                 : Advanced Video Codec
    Format profile              : [email protected]
    Format settings             : CABAC / 4 Ref Frames
    Format settings, CABAC      : Yes
    Format settings, Reference  : 4 frames
    Codec ID                    : V_MPEG4/ISO/AVC
    Duration                    : 57 min 59 s
    Bit rate mode               : Variable
    Bit rate                    : 23.8 Mb/s
    Maximum bit rate            : 33.0 Mb/s
    Width                       : 1 920 pixels
    Height                      : 1 080 pixels
    Display aspect ratio        : 16:9
    Frame rate mode             : Constant
    Frame rate                  : 25.000 FPS
    Color space                 : YUV
    Chroma subsampling          : 4:2:0
    Bit depth                   : 8 bits
    Scan type                   : MBAFF
    Scan type, store method     : Interleaved fields
    Scan order                  : Top Field First
    Bits/(Pixel*Frame)          : 0.460
    Stream size                 : 9.66 GiB (80%)
    Title                       : MPEG-4 AVC Video / 24371 kbps / 1080i / 25 fps / 16:9 / High Profile 4.1
    Language                    : zxx
    Default                     : Yes
    Forced                      : No
    Audio #1
    ID                          : 2
    Format                      : MLP FBA 16-ch
    Format/Info                 : Meridian Lossless Packing FBA with 16-channel presentation
    Commercial name             : Dolby TrueHD with Dolby Atmos
    Codec ID                    : A_TRUEHD
    Duration                    : 57 min 59 s
    Bit rate mode               : Variable
    Bit rate                    : 4 998 kb/s
    Maximum bit rate            : 7 644 kb/s
    Channel(s)                  : 8 channels
    Channel layout              : L R C LFE Ls Rs Lb Rb
    Sampling rate               : 48.0 kHz
    Frame rate                  : 1 200.000 FPS (40 SPF)
    Compression mode            : Lossless
    Stream size                 : 2.02 GiB (17%)
    Title                       : Dolby TrueHD/Atmos Audio / 7.1+11 objects / 48 kHz / 4765 kbps / 24-bit
    Language                    : English
    Default                     : Yes
    Forced                      : No
    Number of dynamic objects   : 11
    Bed channel count           : 1 channel
    Bed channel configuration   : LFE
    Audio #2
    ID                          : 3
    Format                      : AC-3
    Format/Info                 : Audio Coding 3
    Commercial name             : Dolby Digital
    Codec ID                    : A_AC3
    Duration                    : 57 min 59 s
    Bit rate mode               : Constant
    Bit rate                    : 640 kb/s
    Channel(s)                  : 6 channels
    Channel layout              : L R C LFE Ls Rs
    Sampling rate               : 48.0 kHz
    Frame rate                  : 31.250 FPS (1536 SPF)
    Compression mode            : Lossy
    Stream size                 : 265 MiB (2%)
    Title                       : Compatibility Track / Dolby Digital Audio / 5.1-EX / 48 kHz / 640 kbps
    Language                    : English
    Service kind                : Complete Main
    Default                     : No
    Forced                      : No
    Text #1
    ID                          : 4
    Format                      : PGS
    Muxing mode                 : zlib
    Codec ID                    : S_HDMV/PGS
    Codec ID/Info               : Picture based subtitle format used on BDs/HD-DVDs
    Duration                    : 57 min 17 s
    Bit rate                    : 40.6 kb/s
    Count of elements           : 1248
    Stream size                 : 16.6 MiB (0%)
    Language                    : English
    Default                     : No
    Forced                      : No
    Text #2
    ID                          : 5
    Format                      : UTF-8
    Codec ID                    : S_TEXT/UTF8
    Codec ID/Info               : UTF-8 Plain Text
    Duration                    : 58 min 6 s
    Bit rate                    : 48 b/s
    Count of elements           : 681
    Stream size                 : 20.6 KiB (0%)
    Title                       : Traditional Chinese [正體中文]
    Language                    : Chinese
    Default                     : No
    Forced                      : No
    Text #3
    ID                          : 6
    Format                      : UTF-8
    Codec ID                    : S_TEXT/UTF8
    Codec ID/Info               : UTF-8 Plain Text
    Duration                    : 58 min 6 s
    Bit rate                    : 48 b/s
    Count of elements           : 681
    Stream size                 : 20.6 KiB (0%)
    Title                       : Simplified Chinese [简体中文]
    Language                    : Chinese
    Default                     : No
    Forced                      : No
    Text #4
    ID                          : 7
    Format                      : PGS
    Muxing mode                 : zlib
    Codec ID                    : S_HDMV/PGS
    Codec ID/Info               : Picture based subtitle format used on BDs/HD-DVDs
    Duration                    : 58 min 6 s
    Bit rate                    : 27.8 kb/s
    Count of elements           : 1316
    Stream size                 : 11.6 MiB (0%)
    Title                       : Traditional Chinese [正體中文]
    Language                    : Chinese
    Default                     : No
    Forced                      : No
    Text #5
    ID                          : 8
    Format                      : PGS
    Muxing mode                 : zlib
    Codec ID                    : S_HDMV/PGS
    Codec ID/Info               : Picture based subtitle format used on BDs/HD-DVDs
    Duration                    : 56 min 50 s
    Bit rate                    : 23.6 kb/s
    Count of elements           : 1184
    Stream size                 : 9.61 MiB (0%)
    Title                       : Simplified Chinese [简体中文]
    Language                    : Chinese
    Default                     : No
    Forced                      : No
    Text #6
    ID                          : 9
    Format                      : PGS
    Muxing mode                 : zlib
    Codec ID                    : S_HDMV/PGS
    Codec ID/Info               : Picture based subtitle format used on BDs/HD-DVDs
    Duration                    : 58 min 6 s
    Bit rate                    : 49.4 kb/s
    Count of elements           : 1480
    Stream size                 : 20.5 MiB (0%)
    Title                       : Traditional Chinese [正體中文] + English
    Language                    : Chinese
    Default                     : No
    Forced                      : No
    Text #7
    ID                          : 10
    Format                      : PGS
    Muxing mode                 : zlib
    Codec ID                    : S_HDMV/PGS
    Codec ID/Info               : Picture based subtitle format used on BDs/HD-DVDs
    Duration                    : 58 min 6 s
    Bit rate                    : 48.4 kb/s
    Count of elements           : 1480
    Stream size                 : 20.1 MiB (0%)
    Title                       : Simplified Chinese [简体中文] + English
    Language                    : Chinese
    Default                     : No
    Forced                      : No
    Text #8
    ID                          : 11
    Format                      : UTF-8
    Codec ID                    : S_TEXT/UTF8
    Codec ID/Info               : UTF-8 Plain Text
    Duration                    : 57 min 57 s
    Bit rate                    : 72 b/s
    Count of elements           : 593
    Stream size                 : 30.6 KiB (0%)
    Title                       : Vietnam
    Language                    : Vietnamese
    Default                     : Yes
    Forced                      : No
    Menu
    00:00:00.000                : en:Chapter 01
    00:05:11.080                : en:Chapter 02
    00:14:01.520                : en:Chapter 03
    00:29:40.120                : en:Chapter 04
    00:38:47.560                : en:Chapter 05
    00:51:12.640                : en:Chapter 06
    

    Mã:
    General
    Complete name               : The.Green.Planet.2022.S01E01.Tropical.Worlds.2160p.BluRay.REMUX.HDR.HEVC.TrueHD.7.1-Kenobi_Vietsub.mkv
    Format                      : Matroska
    Format version              : Version 4
    File size                   : 20.8 GiB
    Duration                    : 58 min 1 s
    Overall bit rate mode       : Variable
    Overall bit rate            : 51.3 Mb/s
    Movie name                  : The Green Planet (2022)  - S01E01 - Tropical Worlds
    Encoded date                : UTC 2022-03-24 03:07:26
    Writing application         : mkvmerge v22.0.0 ('At The End Of The World') 64-bit
    Writing library             : libebml v1.3.9 + libmatroska v1.5.2
    IMDB                        : tt16986646
    TMDB                        : tv/96323
    TVDB                        : 359250
    Video
    ID                          : 1
    Format                      : HEVC
    Format/Info                 : High Efficiency Video Coding
    Format profile              : Main [email protected]@High
    HDR format                  : SMPTE ST 2086, HDR10 compatible
    Codec ID                    : V_MPEGH/ISO/HEVC
    Duration                    : 50 min 22 s
    Bit rate                    : 53.4 Mb/s
    Width                       : 3 840 pixels
    Height                      : 2 160 pixels
    Display aspect ratio        : 16:9
    Frame rate mode             : Constant
    Frame rate                  : 23.976 (24000/1001) FPS
    Color space                 : YUV
    Chroma subsampling          : 4:2:0 (Type 2)
    Bit depth                   : 10 bits
    Bits/(Pixel*Frame)          : 0.268
    Stream size                 : 18.8 GiB (90%)
    Title                       : MPEG-H HEVC Video / 54681 kbps / 2160p / 23.976 fps / 16:9 / Main 10 @ Level 5.1 @ High / 10 bits / HDR10 / BT.2020
    Language                    : zxx
    Default                     : Yes
    Forced                      : No
    Color range                 : Limited
    Color primaries             : BT.2020
    Transfer characteristics    : PQ
    Matrix coefficients         : BT.2020 non-constant
    Mastering display color pri : Display P3
    Mastering display luminance : min: 0.0050 cd/m2, max: 1000 cd/m2
    Maximum Content Light Level : 996 cd/m2
    Maximum Frame-Average Light : 489 cd/m2
    Audio #1
    ID                          : 2
    Format                      : MLP FBA 16-ch
    Format/Info                 : Meridian Lossless Packing FBA with 16-channel presentation
    Commercial name             : Dolby TrueHD with Dolby Atmos
    Codec ID                    : A_TRUEHD
    Duration                    : 50 min 22 s
    Bit rate mode               : Variable
    Bit rate                    : 4 937 kb/s
    Maximum bit rate            : 7 608 kb/s
    Channel(s)                  : 8 channels
    Channel layout              : L R C LFE Ls Rs Lb Rb
    Sampling rate               : 48.0 kHz
    Frame rate                  : 1 200.000 FPS (40 SPF)
    Compression mode            : Lossless
    Stream size                 : 1.74 GiB (8%)
    Title                       : Dolby TrueHD/Atmos Audio / 7.1 / 48 kHz / 4937 kbps / 24-bit
    Language                    : English
    Default                     : Yes
    Forced                      : No
    Number of dynamic objects   : 11
    Bed channel count           : 1 channel
    Bed channel configuration   : LFE
    Audio #2
    ID                          : 3
    Format                      : AC-3
    Format/Info                 : Audio Coding 3
    Commercial name             : Dolby Digital
    Codec ID                    : A_AC3
    Duration                    : 50 min 22 s
    Bit rate mode               : Constant
    Bit rate                    : 640 kb/s
    Channel(s)                  : 6 channels
    Channel layout              : L R C LFE Ls Rs
    Sampling rate               : 48.0 kHz
    Frame rate                  : 31.250 FPS (1536 SPF)
    Compression mode            : Lossy
    Stream size                 : 231 MiB (1%)
    Title                       : Compatibility Track / Dolby Digital Audio / 5.1-EX / 48 kHz / 640 kbps
    Language                    : English
    Service kind                : Complete Main
    Default                     : No
    Forced                      : No
    Text #1
    ID                          : 4
    Format                      : PGS
    Muxing mode                 : zlib
    Codec ID                    : S_HDMV/PGS
    Codec ID/Info               : Picture based subtitle format used on BDs/HD-DVDs
    Duration                    : 49 min 33 s
    Bit rate                    : 27.0 kb/s
    Count of elements           : 940
    Stream size                 : 9.57 MiB (0%)
    Language                    : English
    Default                     : No
    Forced                      : No
    Text #2
    ID                          : 5
    Format                      : PGS
    Muxing mode                 : zlib
    Codec ID                    : S_HDMV/PGS
    Codec ID/Info               : Picture based subtitle format used on BDs/HD-DVDs
    Duration                    : 49 min 33 s
    Bit rate                    : 34.1 kb/s
    Count of elements           : 940
    Stream size                 : 12.1 MiB (0%)
    Language                    : English
    Default                     : No
    Forced                      : No
    Text #3
    ID                          : 6
    Format                      : UTF-8
    Codec ID                    : S_TEXT/UTF8
    Codec ID/Info               : UTF-8 Plain Text
    Duration                    : 57 min 57 s
    Bit rate                    : 72 b/s
    Count of elements           : 593
    Stream size                 : 30.6 KiB (0%)
    Title                       : Vietnam
    Language                    : Vietnamese
    Default                     : Yes
    Forced                      : No
    Menu
    00:00:00.000                : en:Chapter 01
    00:04:54.002                : en:Chapter 02
    00:13:39.527                : en:Chapter 03
    00:29:39.986                : en:Chapter 04
    00:38:41.277                : en:Chapter 05
    00:49:49.820                : en:Chapter 06
    

    SCREENSHOT
    [​IMG]
    DOWNLOAD
    =============================================================
    MOVIES BY HIEUIT

    Bộ Sưu Tập 4K HDR 10bit x265 HEVC (Vietsub - Siêu Nhẹ - Siêu Nét)
    Bộ Sưu Tập James Bond 007 Collection 1080p BluRay REMUX
    AppleTV+ TV Show Collection 1080p WEB-DL DD+ 5.1 x264 ~ Bộ Sưu Tập TV Show Của AppleTV+
    DC Comics Animated Movies Collection Bluray REMUX 1080p
    Charmed 1998 Complete Series 1080p BluRay REMUX AVC FLAC 2.0 ~ Bộ Ba Phép Thuật
    Sons of Anarchy Complete Series 1080p DTS-HDMA 5.1 AVC REMUX-FraMeSToR ~ Giang Hồ Đẫm Máu
    The X-Files Complete Series 1080p BluRay Remux AVC DTS-HD MA 5.1-EPSiLON ~ Hồ Sơ Tuyệt Mật
    Smallville Complete Series (2001 - 2011) 10 Season 1080p AMZN WEB-DL + Bluray REMUX
    The Sopranos Complete Series 1080p Blu-ray Remux AVC DTS-HD MA 5.1 ~ Gia Đình Soprano
    The Wire 2002 Complete Series BluRay REMUX 1080p AVC DTS-HDMA 5.1-MrO ~ Đường Dây Tội Phạm
    Avatar: The Last Airbender Complete Series 1080p BluRay REMUX AVC DTS-HD MA 2.0-H72
     
    ducnscc, nhatminh84, dienmax and 47 others like this.

Chia sẻ trang này