[MULTI] Stevie Hoang - Unsigned (2011) [FLAC]

Thảo luận trong 'Nhạc quốc tế' bắt đầu bởi [4ever]emQuynh, 25/5/11.

  1. [4ever]emQuynh

    [4ever]emQuynh Well-Known Member

    Tham gia ngày:
    11/11/09
    Bài viết:
    729
    Đã được cảm ơn:
    1,766
    Nghề nghiệp:
    học sinh ngoan ngoãn
    Nơi ở:
    VN
    Stevie Hoang - Unsigned (2011)
    [video=youtube;EBqLb0bXRv4]http://www.youtube.com/watch?v=EBqLb0bXRv4[/video]
    [​IMG]
    [​IMG]
    [​IMG]

    Mã:
    01. Fight for You (Feat. Iyaz)
    02. Birthday
    03. Sugar Daddy
    04. Text
    05. Half A Chance
    06. No Good
    07. Nobody
    08. Listen to My Head
    09. Time
    
    
    10. Sunlight
    11. I’ll Be Fine
    12. Lottery
    13. Worth the Wait
    14. Show You Off
    15. Summer Love
    16. Babies
    [​IMG]
    Mã:
    Exact Audio Copy V1.0 beta 1 from 15. November 2010
    
    EAC extraction logfile from 25. May 2011, 2:12
    
    Stevie Hoang / Unsigned
    
    Used drive  : Optiarc DVD RW AD-7561S   Adapter: 1  ID: 0
    
    Read mode               : Secure
    Utilize accurate stream : Yes
    Defeat audio cache      : Yes
    Make use of C2 pointers : No
    
    Read offset correction                      : 6
    Overread into Lead-In and Lead-Out          : No
    Fill up missing offset samples with silence : Yes
    Delete leading and trailing silent blocks   : No
    Null samples used in CRC calculations       : Yes
    Used interface                              : Native Win32 interface for Win NT & 2000
    Gap handling                                : Appended to previous track
    
    Used output format              : User Defined Encoder
    Selected bitrate                : 896 kBit/s
    Quality                         : High
    Add ID3 tag                     : No
    Command line compressor         : C:\Program Files\Exact Audio Copy\Flac\flac.exe
    Additional command line options : -8 -V -T "ARTIST=%a" -T "TITLE=%t" -T "ALBUM=%g" -T "DATE=%y" -T "TRACKNUMBER=%n" -T "TOTALTRACKS=%x" -T "GENRE=%m" -T "ALBUM ARTIST=%v" -T "ALBUMARTIST=%v" -T "COMMENT=EAC V1.0 beta 1, Secure Mode, Test & Copy, AccurateRip
    
    
    TOC of the extracted CD
    
         Track |   Start  |  Length  | Start sector | End sector 
        ---------------------------------------------------------
            1  |  0:00.00 |  3:43.21 |         0    |    16745   
            2  |  3:43.21 |  3:25.04 |     16746    |    32124   
            3  |  7:08.25 |  3:50.60 |     32125    |    49434   
            4  | 10:59.10 |  3:10.72 |     49435    |    63756   
            5  | 14:10.07 |  3:52.07 |     63757    |    81163   
            6  | 18:02.14 |  4:04.68 |     81164    |    99531   
            7  | 22:07.07 |  3:50.22 |     99532    |   116803   
            8  | 25:57.29 |  4:15.67 |    116804    |   135995   
            9  | 30:13.21 |  3:41.54 |    135996    |   152624   
           10  | 33:55.00 |  3:28.30 |    152625    |   168254   
           11  | 37:23.30 |  3:49.50 |    168255    |   185479   
           12  | 41:13.05 |  3:19.25 |    185480    |   200429   
           13  | 44:32.30 |  3:23.11 |    200430    |   215665   
           14  | 47:55.41 |  3:00.00 |    215666    |   229165   
           15  | 50:55.41 |  3:42.13 |    229166    |   245828   
           16  | 54:37.54 |  3:07.72 |    245829    |   259925   
    
    
    Track  1
    
         Filename E:\Lossless\Stevie Hoang - Unsigned (2011) [FLAC]\01 - Fight for you featuring lyaz.wav
    
         Pre-gap length  0:00:02.00
    
         Peak level 100.0 %
         Extraction speed 2.7 X
         Track quality 100.0 %
         Test CRC EC185237
         Copy CRC EC185237
         Track not present in AccurateRip database
         Copy OK
    
    Track  2
    
         Filename E:\Lossless\Stevie Hoang - Unsigned (2011) [FLAC]\02 - Birthday.wav
    
         Pre-gap length  0:00:02.00
    
         Peak level 100.0 %
         Extraction speed 3.0 X
         Track quality 100.0 %
         Test CRC 345648E1
         Copy CRC 345648E1
         Track not present in AccurateRip database
         Copy OK
    
    Track  3
    
         Filename E:\Lossless\Stevie Hoang - Unsigned (2011) [FLAC]\03 - Sugar Daddy.wav
    
         Pre-gap length  0:00:02.00
    
         Peak level 100.0 %
         Extraction speed 3.2 X
         Track quality 100.0 %
         Test CRC 616FD25C
         Copy CRC 616FD25C
         Track not present in AccurateRip database
         Copy OK
    
    Track  4
    
         Filename E:\Lossless\Stevie Hoang - Unsigned (2011) [FLAC]\04 - Text.wav
    
         Pre-gap length  0:00:02.00
    
         Peak level 100.0 %
         Extraction speed 3.3 X
         Track quality 100.0 %
         Test CRC 2E0D40D7
         Copy CRC 2E0D40D7
         Track not present in AccurateRip database
         Copy OK
    
    Track  5
    
         Filename E:\Lossless\Stevie Hoang - Unsigned (2011) [FLAC]\05 - Half a chance.wav
    
         Pre-gap length  0:00:02.00
    
         Peak level 100.0 %
         Extraction speed 3.0 X
         Track quality 99.9 %
         Test CRC B04AA161
         Copy CRC B04AA161
         Track not present in AccurateRip database
         Copy OK
    
    Track  6
    
         Filename E:\Lossless\Stevie Hoang - Unsigned (2011) [FLAC]\06 - No good.wav
    
         Pre-gap length  0:00:02.00
    
         Peak level 100.0 %
         Extraction speed 3.9 X
         Track quality 100.0 %
         Test CRC B6C13C00
         Copy CRC B6C13C00
         Track not present in AccurateRip database
         Copy OK
    
    Track  7
    
         Filename E:\Lossless\Stevie Hoang - Unsigned (2011) [FLAC]\07 - Nobody.wav
    
         Pre-gap length  0:00:02.00
    
         Peak level 100.0 %
         Extraction speed 4.1 X
         Track quality 100.0 %
         Test CRC 27C6FC01
         Copy CRC 27C6FC01
         Track not present in AccurateRip database
         Copy OK
    
    Track  8
    
         Filename E:\Lossless\Stevie Hoang - Unsigned (2011) [FLAC]\08 - Listen to my head.wav
    
         Pre-gap length  0:00:02.00
    
         Peak level 100.0 %
         Extraction speed 4.4 X
         Track quality 100.0 %
         Test CRC D7B4DD38
         Copy CRC D7B4DD38
         Track not present in AccurateRip database
         Copy OK
    
    Track  9
    
         Filename E:\Lossless\Stevie Hoang - Unsigned (2011) [FLAC]\09 - TIme.wav
    
         Pre-gap length  0:00:02.00
    
         Peak level 100.0 %
         Extraction speed 4.5 X
         Track quality 100.0 %
         Test CRC 0847AADE
         Copy CRC 0847AADE
         Track not present in AccurateRip database
         Copy OK
    
    Track 10
    
         Filename E:\Lossless\Stevie Hoang - Unsigned (2011) [FLAC]\10 - Sunlight.wav
    
         Pre-gap length  0:00:02.00
    
         Peak level 100.0 %
         Extraction speed 4.6 X
         Track quality 100.0 %
         Test CRC 2A6B2BDB
         Copy CRC 2A6B2BDB
         Track not present in AccurateRip database
         Copy OK
    
    Track 11
    
         Filename E:\Lossless\Stevie Hoang - Unsigned (2011) [FLAC]\11 - I'll be fine.wav
    
         Pre-gap length  0:00:02.00
    
         Peak level 98.8 %
         Extraction speed 4.7 X
         Track quality 100.0 %
         Test CRC 915F897D
         Copy CRC 915F897D
         Track not present in AccurateRip database
         Copy OK
    
    Track 12
    
         Filename E:\Lossless\Stevie Hoang - Unsigned (2011) [FLAC]\12 - Lottery.wav
    
         Pre-gap length  0:00:02.00
    
         Peak level 100.0 %
         Extraction speed 4.6 X
         Track quality 100.0 %
         Test CRC 2B69B64A
         Copy CRC 2B69B64A
         Track not present in AccurateRip database
         Copy OK
    
    Track 13
    
         Filename E:\Lossless\Stevie Hoang - Unsigned (2011) [FLAC]\13 - Worth the wait.wav
    
         Pre-gap length  0:00:02.00
    
         Peak level 100.0 %
         Extraction speed 4.6 X
         Track quality 100.0 %
         Test CRC D8A62E26
         Copy CRC D8A62E26
         Track not present in AccurateRip database
         Copy OK
    
    Track 14
    
         Filename E:\Lossless\Stevie Hoang - Unsigned (2011) [FLAC]\14 - Show you off.wav
    
         Pre-gap length  0:00:02.00
    
         Peak level 100.0 %
         Extraction speed 3.9 X
         Track quality 99.9 %
         Test CRC 36DBA638
         Copy CRC 36DBA638
         Track not present in AccurateRip database
         Copy OK
    
    Track 15
    
         Filename E:\Lossless\Stevie Hoang - Unsigned (2011) [FLAC]\15 - Summer love.wav
    
         Pre-gap length  0:00:02.00
    
         Peak level 100.0 %
         Extraction speed 4.3 X
         Track quality 99.9 %
         Test CRC D3071CF5
         Copy CRC D3071CF5
         Track not present in AccurateRip database
         Copy OK
    
    Track 16
    
         Filename E:\Lossless\Stevie Hoang - Unsigned (2011) [FLAC]\16 - Babies.wav
    
         Pre-gap length  0:00:02.00
    
         Peak level 100.0 %
         Extraction speed 4.1 X
         Track quality 99.9 %
         Test CRC ED64C938
         Copy CRC ED64C938
         Track not present in AccurateRip database
         Copy OK
    
    
    None of the tracks are present in the AccurateRip database
    
    No errors occurred
    
    End of status report
    
    ==== Log checksum FBDE7E0613724D71C6A750DB70810BF5CB554B2777A248A36C  D7B89489E3C6CA ====
    
    [​IMG]
    Nhấn nút Cảm ơn (dưới chân bài) để thấy link!

     
  2. Ngọ Xuân Giao

    Ngọ Xuân Giao Huyền Thoại

    Tham gia ngày:
    30/12/08
    Bài viết:
    11,285
    Đã được cảm ơn:
    18,190
    Nghề nghiệp:
    Officer
    Nơi ở:
    Vietnam
    Ðề: Stevie Hoang - Unsigned (2011) [FLAC]

    CD này thuộc genre gì e nhỉ:-?
     
    samuraitruong cảm ơn bài này.
  3. baoquoc_kg

    baoquoc_kg Member

    Tham gia ngày:
    21/1/10
    Bài viết:
    138
    Đã được cảm ơn:
    4
    Ðề: Stevie Hoang - Unsigned (2011) [FLAC]

    up lên mediafire đi bạn, host trên không dow được ời, hihic, thank
     

Chia sẻ trang này