[Fshare] [Remux 4K|V Tưởng] Leviathan 1989 2160p UHD BluRay REMUX HDR DV HEVC DTS-HD MA 5 1-TRiToN-Thủy Quái

Thảo luận trong 'Bluray Remux 4K' bắt đầu bởi canodinh, 18/2/24.

  1. canodinh

    canodinh Uploader

    Tham gia ngày:
    10/9/11
    Bài viết:
    21,534
    Đã được cảm ơn:
    259,056
    Leviathan 1989 2160p UHD BluRay REMUX HDR DV HEVC DTS-HD MA 5 1-TRiToN

    Thủy Quái

    [​IMG]


    Dưới lòng biển sâu, những người thợ mỏ đã khám phá ra một con tàu cũ của Xô Viết đã bị chìm từ rất lâu. Họ đã cố gắng trục vớt con tàu bị đắm này và phần thưởng dành cho họ là ... những hậu quả khủng kiếp. Họ đã phải chiến đấu lại một con quái vật bị đột biến gene. Con quái vật này đã săn đuổi họ và giết chết từng người một.


    General
    Unique ID : 296812964807530107604663769133015125086 (0xDF4C19019725001B4425F85D210C4C5E)
    Complete name : Leviathan.1989.2160p.UHD.BluRay.REMUX.DV.HDR.HEVC.DTS-HD.MA.5.1-TRiToN.mkv
    Format : Matroska
    Format version : Version 4
    File size : 65.5 GiB
    Duration : 1 h 37 min
    Overall bit rate mode : Variable
    Overall bit rate : 96.0 Mb/s
    Frame rate : 24.000 FPS
    Movie name : Leviathan (1989)
    Encoded date : 2024-02-17 12:50:31 UTC
    Writing application : mkvmerge v82.0 ('I'm The President') 64-bit
    Writing library : libebml v1.4.5 + libmatroska v1.7.1
    IMDB : tt0097737
    TMDB : movie/14372

    Video
    ID : 1
    ID in the original source medium : 4113 (0x1011)
    Format : HEVC
    Format/Info : High Efficiency Video Coding
    Format profile : Main [email protected]@High
    HDR format : Dolby Vision, Version 1.0, dvhe.07.06, BL+EL+RPU, Blu-ray compatible / SMPTE ST 2086, HDR10 compatible
    Codec ID : V_MPEGH/ISO/HEVC
    Duration : 1 h 37 min
    Bit rate : 93.2 Mb/s
    Width : 3 840 pixels
    Height : 2 160 pixels
    Display aspect ratio : 16:9
    Frame rate mode : Constant
    Frame rate : 24.000 FPS
    Color space : YUV
    Chroma subsampling : 4:2:0 (Type 2)
    Bit depth : 10 bits
    Bits/(Pixel*Frame) : 0.468
    Stream size : 63.7 GiB (97%)
    Title : MPEG-H HEVC Video / 18918 + 75515 kbps / 2160p / 24 fps / 16:9 / Main 10 @ Level 5.1 @ High / 10 bits / Dolby Vision + HDR10 / BT.2020
    Language : zxx
    Default : Yes
    Forced : No
    Color range : Limited
    Color primaries : BT.2020
    Transfer characteristics : PQ
    Matrix coefficients : BT.2020 non-constant
    Mastering display color primaries : Display P3
    Mastering display luminance : min: 0.0001 cd/m2, max: 1000 cd/m2
    Maximum Content Light Level : 1061 cd/m2
    Maximum Frame-Average Light Level : 170 cd/m2
    Original source medium : Blu-ray

    Audio #1
    ID : 2
    Format : DTS XLL
    Format/Info : Digital Theater Systems
    Commercial name : DTS-HD Master Audio
    Codec ID : A_DTS
    Duration : 1 h 37 min
    Bit rate mode : Variable
    Bit rate : 2 506 kb/s
    Channel(s) : 6 channels
    Channel layout : C L R Ls Rs LFE
    Sampling rate : 48.0 kHz
    Frame rate : 93.750 FPS (512 SPF)
    Bit depth : 16 bits
    Compression mode : Lossless
    Stream size : 1.71 GiB (3%)
    Title : DTS-HD Master Audio / 5.1 / 48 kHz / 2506 kbps / 24-bit
    Language : English
    Default : Yes
    Forced : No

    Audio #2
    ID : 3
    Format : AC-3
    Format/Info : Audio Coding 3
    Commercial name : Dolby Digital
    Codec ID : A_AC3
    Duration : 1 h 37 min
    Bit rate mode : Constant
    Bit rate : 192 kb/s
    Channel(s) : 2 channels
    Channel layout : L R
    Sampling rate : 48.0 kHz
    Frame rate : 31.250 FPS (1536 SPF)
    Compression mode : Lossy
    Stream size : 134 MiB (0%)
    Title : Commentary by film historians Steve Mitchell & Nathaniel Thompson
    Language : English
    Service kind : Complete Main
    Default : No
    Forced : No

    Text
    ID : 4
    Format : PGS
    Codec ID : S_HDMV/PGS
    Codec ID/Info : Picture based subtitle format used on BDs/HD-DVDs
    Duration : 1 h 30 min
    Bit rate : 30.4 kb/s
    Frame rate : 0.343 FPS
    Count of elements : 1872
    Stream size : 19.8 MiB (0%)
    Language : English
    Default : No
    Forced : No

    Menu
    00:00:00.000 : en:Chapter 01
    00:08:54.208 : en:Chapter 02
    00:20:43.333 : en:Chapter 03
    00:37:02.708 : en:Chapter 04
    00:50:53.625 : en:Chapter 05
    01:04:51.083 : en:Chapter 06
    01:17:16.500 : en:Chapter 07
    01:28:59.000 : en:Chapter 08
    01:34:14.167 : en:Chapter 09




    [​IMG]

    [​IMG]

    [​IMG]


    Fshare ~ 65.53GB

    Nhấn nút Cảm ơn (dưới chân bài) để thấy link!


    4Share

    Nhấn nút Cảm ơn (dưới chân bài) để thấy link!


    Sub

    https://subscene.com/subtitles/leviathan

    Tổng hợp phim 18+

    Link topic https://hdvietnam.xyz/threads/mutil...ng-nhat-ban-au-my-cap-nhat-hang-ngay.1796232/

    Nhấn nút Cảm ơn (dưới chân bài) để thấy link!


    Tổng hợp phim full Menu (Thuyết minh+Sub Việt) bluray (nethd.org)

    Nhấn nút Cảm ơn (dưới chân bài) để thấy link!


    Tổng hợp phim bộ Lồng tiếng, thuyết minh, sub việt

    Nhấn nút Cảm ơn (dưới chân bài) để thấy link!


    Tổng hợp phim hàng ngày

    Link topic https://hdvietnam.xyz/threads/tong-hop-phim-bluray-remux-iso-cap-nhat-hang-ngay.1796055/

    Nhấn nút Cảm ơn (dưới chân bài) để thấy link!


    Tổng hợp phim bluray Remux ISO 4K







    mhd

    720p

    1080p

    Thuyết minh

    Remux 4K https://www.hdvietnam.xyz/threads/r...-hevc-dts-hd-ma-5-1-triton-thuy-quai.1906498/

    ISO 4K https://www.hdvietnam.xyz/threads/i...-dts-hd-ma-5-1-b0mbardiers-thuy-quai.1906496/
     
    Chỉnh sửa cuối: 18/2/24

Chia sẻ trang này