[Fshare] [Remux 4K| Phiêu Lưu] Lawrence of Arabia 1962 UHD BluRay 2160p TrueHD Atmos 7 1 DV HEVC REMUX-FraMeS

Thảo luận trong 'Bluray Remux 4K' bắt đầu bởi canodinh, 14/8/22.

  1. canodinh

    canodinh Uploader

    Tham gia ngày:
    10/9/11
    Bài viết:
    21,722
    Đã được cảm ơn:
    261,615
    Lawrence of Arabia 1962 UHD BluRay 2160p TrueHD Atmos 7 1 DV HEVC REMUX-FraMeSToR

    Lawrence xứ Ả Rập
    [​IMG]


    Một sĩ quan Anh được cử tới Trung Đông trong Đại chiến thế giới lần thứ nhất để giúp người Ả rập chống lại người Thổ. Anh trở thành mắt xích quan trọng liên kết các bộ lạc Ả rập với nhau, tạo nên sức mạnh đánh bại quân Thổ.


    General
    Unique ID : 60076623588045408075950931293085636395 (0x2D32563AA91D126E2364BA69D078172B)
    Complete name : Lawrence.of.Arabia.1962.UHD.BluRay.2160p.TrueHD.Atmos.7.1.DV.HEVC.REMUX-FraMeSToR.mkv
    Format : Matroska
    Format version : Version 4
    File size : 97.9 GiB
    Duration : 3 h 47 min
    Overall bit rate mode : Variable
    Overall bit rate : 61.7 Mb/s
    Movie name : Lawrence of Arabia (1962) DV
    Encoded date : UTC 2021-02-27 01:55:30
    Writing application : mkvmerge v53.0.0 ('Fool's Gold') 64-bit
    Writing library : libebml v1.4.1 + libmatroska v1.6.2
    IMDB : tt0056172
    TMDB : movie/947

    Video
    ID : 1
    Format : HEVC
    Format/Info : High Efficiency Video Coding
    Format profile : Main [email protected]@High
    HDR format : Dolby Vision, Version 1.0, dvhe.07.06, BL+EL+RPU, Blu-ray compatible / SMPTE ST 2086, HDR10 compatible
    Codec ID : V_MPEGH/ISO/HEVC
    Duration : 3 h 47 min
    Bit rate : 57.8 Mb/s
    Width : 3 840 pixels
    Height : 2 160 pixels
    Display aspect ratio : 16:9
    Frame rate mode : Constant
    Frame rate : 23.976 (24000/1001) FPS
    Color space : YUV
    Chroma subsampling : 4:2:0 (Type 2)
    Bit depth : 10 bits
    Bits/(Pixel*Frame) : 0.290
    Stream size : 91.6 GiB (94%)
    Default : Yes
    Forced : No
    Color range : Limited
    Color primaries : BT.2020
    Transfer characteristics : PQ
    Matrix coefficients : BT.2020 non-constant
    Mastering display color primaries : Display P3
    Mastering display luminance : min: 0.0001 cd/m2, max: 1000 cd/m2
    Maximum Content Light Level : 1289 cd/m2
    Maximum Frame-Average Light Level : 364 cd/m2

    Audio #1
    ID : 2
    Format : MLP FBA 16-ch
    Format/Info : Meridian Lossless Packing FBA with 16-channel presentation
    Commercial name : Dolby TrueHD with Dolby Atmos
    Codec ID : A_TRUEHD
    Duration : 3 h 47 min
    Bit rate mode : Variable
    Bit rate : 2 719 kb/s
    Maximum bit rate : 4 176 kb/s
    Channel(s) : 8 channels
    Channel layout : L R C LFE Ls Rs Lb Rb
    Sampling rate : 48.0 kHz
    Frame rate : 1 200.000 FPS (40 SPF)
    Compression mode : Lossless
    Stream size : 4.31 GiB (4%)
    Title : TrueHD Atmos 7.1
    Language : English
    Default : Yes
    Forced : No
    Number of dynamic objects : 11
    Bed channel count : 1 channel
    Bed channel configuration : LFE

    Audio #2
    ID : 3
    Format : AC-3
    Format/Info : Audio Coding 3
    Commercial name : Dolby Digital
    Codec ID : A_AC3
    Duration : 3 h 47 min
    Bit rate mode : Constant
    Bit rate : 640 kb/s
    Channel(s) : 6 channels
    Channel layout : L R C LFE Ls Rs
    Sampling rate : 48.0 kHz
    Frame rate : 31.250 FPS (1536 SPF)
    Compression mode : Lossy
    Stream size : 1.01 GiB (1%)
    Title : AC-3 5.1
    Language : English
    Service kind : Complete Main
    Default : No
    Forced : No


    [​IMG] [​IMG] [​IMG] [​IMG] [​IMG] [​IMG]

    Fshare ~ 97.88GB

    Nhấn nút Cảm ơn (dưới chân bài) để thấy link!


    4Share

    Nhấn nút Cảm ơn (dưới chân bài) để thấy link!


    Sub Việt

    https://subscene.com/subtitles/lawrence-of-arabia

    Tổng hợp phim 18+

    Link topic https://hdvietnam.xyz/threads/mutil...ng-nhat-ban-au-my-cap-nhat-hang-ngay.1796232/

    Nhấn nút Cảm ơn (dưới chân bài) để thấy link!


    Tổng hợp phim full Menu (Thuyết minh+Sub Việt) bluray (nethd.org)

    Nhấn nút Cảm ơn (dưới chân bài) để thấy link!


    Tổng hợp phim bộ Lồng tiếng, thuyết minh, sub việt

    Nhấn nút Cảm ơn (dưới chân bài) để thấy link!


    Tổng hợp phim hàng ngày

    Link topic https://hdvietnam.xyz/threads/tong-hop-phim-bluray-remux-iso-cap-nhat-hang-ngay.1796055/

    Nhấn nút Cảm ơn (dưới chân bài) để thấy link!


    Tổng hợp phim bluray Remux ISO 4K



    mhd

    720p

    1080p

    Thuyết minh

    Remux https://www.hdvietnam.xyz/threads/p...0p-dts-hd-ma-5-1-avc-remux-framestor.1907672/

    Remux 4K https://www.hdvietnam.xyz/threads/r...ruehd-atmos-7-1-dv-hevc-remux-frames.1810719/

    ISO
     
    Chỉnh sửa cuối: 28/2/24
  2. malgreli

    malgreli Active Member

    Tham gia ngày:
    19/9/13
    Bài viết:
    130
    Đã được cảm ơn:
    87
    Bác @canodinh ơi, bác có thể reup lại film này với bản remux 1080p được không ạ ?
     
  3. legorreta

    legorreta Well-Known Member

    Tham gia ngày:
    10/12/09
    Bài viết:
    235
    Đã được cảm ơn:
    682
    Bác chủ còn bản 4K DV này không up lại giúp mình nhé. Tks
     
  4. canodinh

    canodinh Uploader

    Tham gia ngày:
    10/9/11
    Bài viết:
    21,722
    Đã được cảm ơn:
    261,615
    reup
     
    legorreta cảm ơn bài này.
  5. legorreta

    legorreta Well-Known Member

    Tham gia ngày:
    10/12/09
    Bài viết:
    235
    Đã được cảm ơn:
    682
    cảm ơn bác nhiều
     
  6. canodinh

    canodinh Uploader

    Tham gia ngày:
    10/9/11
    Bài viết:
    21,722
    Đã được cảm ơn:
    261,615
    malgreli cảm ơn bài này.

Chia sẻ trang này