[Fshare] [Remux 4K|Kinh Dị] Dawn of the Dead 2004 DC 2160p BluRay REMUX DV HEVC DTS-HD MA 5.1-Bình Minh Chết

Thảo luận trong 'Bluray Remux 4K' bắt đầu bởi canodinh, 31/1/23.

  1. canodinh

    canodinh Uploader

    Tham gia ngày:
    10/9/11
    Bài viết:
    19,964
    Đã được cảm ơn:
    241,975
    mới ra bản 4K


    Dawn of the Dead 2004 DC 2160p BluRay REMUX DV HEVC DTS-HD MA 5.1-FGT

    Bình Minh Chết
    [​IMG]


    Khi nước Mỹ hoàn toàn bị lật úp bởi 1 quân đoàn của những tử thi khát máu biết đi, 1 nhóm nhỏ những người còn sống sót tìm cách thoát khỏi vùng đất chết. Họ ẩn nấp trong 1 siêu thị lớn, nhưng các zombie vẫn còn mang những ký ức của con người, tức là vẫn thích đi shopping. Thế là tất cả zombie hướng về phía siêu thị. Nhóm người sống sót tìm cách tháo chạy đến máy bay để bay đến 1 hòn đảo cách biệt


    General
    Unique ID : 65917725187169806563575464714805074289 (0x31974AC5C7B942ED5AEE9BD600665971)
    Complete name : C:\phim\Dawn.of.the.Dead.2004.DC.2160p.BluRay.REMUX.DV.HEVC.DTS-HD.MA.5.1-FGT.mkv
    Format : Matroska
    Format version : Version 4
    File size : 69.5 GiB
    Duration : 1 h 49 min
    Overall bit rate mode : Variable
    Overall bit rate : 91.1 Mb/s
    Movie name : Dawn.of.the.Dead.2004.DC.2160p.BluRay.REMUX.HEVC.DTS-HD.MA.5.1-FGT
    Encoded date : UTC 2023-01-27 10:07:19
    Writing application : mkvmerge v73.0.0 ('25 or 6 to 4') 64-bit
    Writing library : libebml v1.4.4 + libmatroska v1.7.1

    Video
    ID : 1
    ID in the original source medium : 4113 (0x1011)
    Format : HEVC
    Format/Info : High Efficiency Video Coding
    Format profile : Main [email protected]@High
    HDR format : Dolby Vision, Version 1.0, dvhe.07.06, BL+EL+RPU, Blu-ray compatible / SMPTE ST 2086, HDR10 compatible
    Codec ID : V_MPEGH/ISO/HEVC
    Duration : 1 h 49 min
    Bit rate : 84.2 Mb/s
    Width : 3 840 pixels
    Height : 2 160 pixels
    Display aspect ratio : 16:9
    Frame rate mode : Constant
    Frame rate : 23.976 (24000/1001) FPS
    Color space : YUV
    Chroma subsampling : 4:2:0 (Type 2)
    Bit depth : 10 bits
    Bits/(Pixel*Frame) : 0.423
    Stream size : 64.2 GiB (92%)
    Language : English
    Default : No
    Forced : No
    Color range : Limited
    Color primaries : BT.2020
    Transfer characteristics : PQ
    Matrix coefficients : BT.2020 non-constant
    Mastering display color primaries : Display P3
    Mastering display luminance : min: 0.0050 cd/m2, max: 4000 cd/m2
    Maximum Content Light Level : 3763 cd/m2
    Maximum Frame-Average Light Level : 559 cd/m2
    Original source medium : Blu-ray

    Audio #1
    ID : 2
    ID in the original source medium : 4352 (0x1100)
    Format : DTS XLL
    Format/Info : Digital Theater Systems
    Commercial name : DTS-HD Master Audio
    Codec ID : A_DTS
    Duration : 1 h 49 min
    Bit rate mode : Variable
    Bit rate : 3 973 kb/s
    Channel(s) : 6 channels
    Channel layout : C L R Ls Rs LFE
    Sampling rate : 48.0 kHz
    Frame rate : 93.750 FPS (512 SPF)
    Bit depth : 24 bits
    Compression mode : Lossless
    Stream size : 3.03 GiB (4%)
    Title : DTS-HD MA 5.1
    Language : English
    Default : Yes
    Forced : No
    Original source medium : Blu-ray

    Audio #2
    ID : 3
    Format : AC-3
    Format/Info : Audio Coding 3
    Commercial name : Dolby Digital
    Codec ID : A_AC3
    Duration : 1 h 49 min
    Bit rate mode : Constant
    Bit rate : 640 kb/s
    Channel(s) : 6 channels
    Channel layout : L R C LFE Ls Rs
    Sampling rate : 48.0 kHz
    Frame rate : 31.250 FPS (1536 SPF)
    Compression mode : Lossy
    Stream size : 500 MiB (1%)
    Title : DD 5.1
    Language : English
    Service kind : Complete Main
    Default : No
    Forced : No

    Audio #3
    ID : 4
    ID in the original source medium : 4353 (0x1101)
    Format : DTS XLL
    Format/Info : Digital Theater Systems
    Commercial name : DTS-HD Master Audio
    Codec ID : A_DTS
    Duration : 1 h 49 min
    Bit rate mode : Variable
    Bit rate : 2 063 kb/s
    Channel(s) : 2 channels
    Channel layout : L R
    Sampling rate : 48.0 kHz
    Frame rate : 93.750 FPS (512 SPF)
    Bit depth : 24 bits
    Compression mode : Lossless
    Stream size : 1.57 GiB (2%)
    Title : DTS-HD MA 2.0
    Language : English
    Default : No
    Forced : No
    Original source medium : Blu-ray

    Audio #4
    ID : 5
    ID in the original source medium : 4354 (0x1102)
    Format : AC-3
    Format/Info : Audio Coding 3
    Commercial name : Dolby Digital
    Codec ID : A_AC3
    Duration : 1 h 49 min
    Bit rate mode : Constant
    Bit rate : 192 kb/s
    Channel(s) : 2 channels
    Channel layout : L R
    Sampling rate : 48.0 kHz
    Frame rate : 31.250 FPS (1536 SPF)
    Compression mode : Lossy
    Stream size : 150 MiB (0%)
    Title : DD 2.0
    Language : English
    Service kind : Complete Main
    Default : No
    Forced : No
    Original source medium : Blu-ray

    Text #1
    ID : 6
    Format : UTF-8
    Codec ID : S_TEXT/UTF8
    Codec ID/Info : UTF-8 Plain Text
    Duration : 1 h 46 min
    Bit rate : 40 b/s
    Count of elements : 1195
    Stream size : 31.4 KiB (0%)
    Language : English
    Default : Yes
    Forced : No

    Text #2
    ID : 7
    Format : UTF-8
    Codec ID : S_TEXT/UTF8
    Codec ID/Info : UTF-8 Plain Text
    Duration : 1 h 46 min
    Bit rate : 47 b/s
    Count of elements : 1393
    Stream size : 37.1 KiB (0%)
    Title : SDH
    Language : English
    Default : No
    Forced : No

    Text #3
    ID : 8
    ID in the original source medium : 4768 (0x12A0)
    Format : PGS
    Muxing mode : zlib
    Codec ID : S_HDMV/PGS
    Codec ID/Info : Picture based subtitle format used on BDs/HD-DVDs
    Duration : 1 h 46 min
    Bit rate : 29.8 kb/s
    Count of elements : 2814
    Stream size : 22.7 MiB (0%)
    Language : English
    Default : No
    Forced : No
    Original source medium : Blu-ray

    Menu
    00:00:00.000 : en:Chapter 01
    00:10:40.097 : en:Chapter 02
    00:23:28.490 : en:Chapter 03
    00:31:11.452 : en:Chapter 04
    00:38:13.499 : en:Chapter 05
    00:49:53.615 : en:Chapter 06
    00:56:32.722 : en:Chapter 07
    01:08:49.625 : en:Chapter 08
    01:18:15.273 : en:Chapter 09
    01:25:53.106 : en:Chapter 10
    01:33:41.949 : en:Chapter 11
    01:42:06.787 : en:Chapter 12
    01:49:11.545 : en:Chapter 13



    [​IMG]

    [​IMG]

    [​IMG]

    Fshare ~69.5 GB

    Nhấn nút Cảm ơn (dưới chân bài) để thấy link!


    4Share

    Nhấn nút Cảm ơn (dưới chân bài) để thấy link!


    Sub Việt

    https://subscene.com/subtitles/dawn-of-the-dead

    Tổng hợp phim 18+

    Link topic https://hdvietnam.xyz/threads/mutil...ng-nhat-ban-au-my-cap-nhat-hang-ngay.1796232/
    Nhấn nút Cảm ơn (dưới chân bài) để thấy link!


    Tổng hợp phim full Menu (Thuyết minh+Sub Việt) bluray (nethd.org)

    Nhấn nút Cảm ơn (dưới chân bài) để thấy link!


    Tổng hợp phim bộ Lồng tiếng, thuyết minh, sub việt

    Nhấn nút Cảm ơn (dưới chân bài) để thấy link!


    Tổng hợp phim hàng ngày

    Link topic https://hdvietnam.xyz/threads/tong-hop-phim-bluray-remux-iso-cap-nhat-hang-ngay.1796055/



    Nhấn nút Cảm ơn (dưới chân bài) để thấy link!




    Tổng hợp phim bluray Remux ISO 4K




    Mhd

    720p

    1080p

    Thuyết minh

    Remux 4K https://www.hdvietnam.xyz/threads/r...dv-hevc-dts-hd-ma-5-1-binh-minh-chet.1846168/

    ISO 4K https://www.hdvietnam.xyz/threads/i...vc-dts-hd-ma-5-1-coys-binh-minh-chet.1846174/
     
    Chỉnh sửa cuối: 31/1/23

Chia sẻ trang này