[Fshare] [Remux 4K|H Sự] Tinker Tailor Soldier Spy 2011 2160p BluRay UHD REMUX DV HDR HEVC DTS-HD MA 5 1-Top1

Thảo luận trong 'Bluray Remux 4K' bắt đầu bởi canodinh, 16/2/24.

  1. canodinh

    canodinh Uploader

    Tham gia ngày:
    10/9/11
    Bài viết:
    21,533
    Đã được cảm ơn:
    259,050
    Tinker Tailor Soldier Spy 2011 2160p BluRay UHD REMUX DV HDR HEVC DTS-HD MA 5 1-Top10UKSingle

    Trò chơi nội gián
    [​IMG]

    Trò Chơi Nội Gián Bộ phim chuyển thể từ cuốn tiểu thuyết kinh điển của John le Carré về đề tài điệp viên của đạo điễn nổi tiếng người Thụy Điển Tomas Alfredson. Qua mối tình với người vợ vốn là sĩ quan trong cục tình báo Moscow, đặc vụ người Anh Ricki Tarr khám phá ra có một đặc vụ Liên Xô cấp cao đang gián điệp hai mang hiện đang ẩn mình trong The Circus, một trong những cơ quan cao nhất của CIA. Tarr cảnh báo Oliver Lacon, một sĩ quan trong nước hiện đang làm việc cho cục tình báo.

    General
    Unique ID : 92550507391481866999249376336828236261 (0x45A09450A1D37C7A5EC99C8CED8501E5)

    Complete name : G:\Tinker.Tailor.Soldier.Spy.2011.2160p.BluRay.UHD.REMUX.DV.HDR.HEVC.DTS-HD.MA.5.1-Top10UKSingle.mkv

    Format : Matroska
    Format version : Version 4
    File size : 71.7 GiB
    Duration : 2 h 7 min
    Overall bit rate mode : Variable
    Overall bit rate : 80.6 Mb/s
    Frame rate : 23.976 FPS
    Movie name : Tinker.Tailor.Soldier.Spy.2011.2160p.BluRay.UHD.REMUX.DV.HDR.HEVC.DTS-HD.MA.5.1-Top10UKSingle
    Encoded date : 2024-02-12 05:17:14 UTC
    Writing application : mkvmerge v80.0 ('Roundabout') 64-bit
    Writing library : libebml v1.4.4 + libmatroska v1.7.1

    Video
    ID : 1
    ID in the original source medium : 4113 (0x1011)
    Format : HEVC
    Format/Info : High Efficiency Video Coding
    Format profile : Main [email protected]@High
    HDR format : Dolby Vision, Version 1.0, dvhe.07.06, BL+EL+RPU, Blu-ray compatible / SMPTE ST 2086, HDR10 compatible
    Codec ID : V_MPEGH/ISO/HEVC
    Duration : 2 h 7 min
    Bit rate : 77.2 Mb/s
    Width : 3 840 pixels
    Height : 2 160 pixels
    Display aspect ratio : 16:9
    Frame rate mode : Constant
    Frame rate : 23.976 (24000/1001) FPS
    Color space : YUV
    Chroma subsampling : 4:2:0 (Type 2)
    Bit depth : 10 bits
    Bits/(Pixel*Frame) : 0.388
    Stream size : 68.7 GiB (96%)
    Language : English
    Default : No
    Forced : No
    Color range : Limited
    Color primaries : BT.2020
    Transfer characteristics : PQ
    Matrix coefficients : BT.2020 non-constant
    Mastering display color primaries : BT.2020
    Mastering display luminance : min: 0.0001 cd/m2, max: 1000 cd/m2
    Original source medium : Blu-ray

    Audio #1
    ID : 2
    Format : DTS XLL
    Format/Info : Digital Theater Systems
    Commercial name : DTS-HD Master Audio
    Codec ID : A_DTS
    Duration : 2 h 7 min
    Bit rate mode : Variable
    Bit rate : 3 230 kb/s
    Channel(s) : 6 channels
    Channel layout : C L R Ls Rs LFE
    Sampling rate : 48.0 kHz
    Frame rate : 93.750 FPS (512 SPF)
    Bit depth : 24 bits
    Compression mode : Lossless
    Stream size : 2.87 GiB (4%)
    Language : English
    Default : Yes
    Forced : No

    Audio #2
    ID : 3
    Format : AC-3
    Format/Info : Audio Coding 3
    Commercial name : Dolby Digital
    Codec ID : A_AC3
    Duration : 2 h 7 min
    Bit rate mode : Constant
    Bit rate : 192 kb/s
    Channel(s) : 2 channels
    Channel layout : L R
    Sampling rate : 48.0 kHz
    Frame rate : 31.250 FPS (1536 SPF)
    Compression mode : Lossy
    Stream size : 175 MiB (0%)
    Language : English
    Service kind : Complete Main
    Default : Yes
    Forced : No

    Menu
    00:00:00.000 : Chapter 01
    00:12:39.342 : Chapter 02
    00:22:44.655 : Chapter 03
    00:35:04.728 : Chapter 04
    00:48:36.038 : Chapter 05
    00:59:11.465 : Chapter 06
    01:10:34.272 : Chapter 07
    01:24:45.372 : Chapter 08
    01:34:49.142 : Chapter 09
    01:41:50.771 : Chapter 10
    01:51:18.255 : Chapter 11
    02:00:19.379 : Chapter 12

    [​IMG]
    [​IMG]
    [​IMG]
    [​IMG]

    Fshare ~ 71.73GB
    Nhấn nút Cảm ơn (dưới chân bài) để thấy link!

    4Share
    Nhấn nút Cảm ơn (dưới chân bài) để thấy link!

    Sub Việt

    https://subscene.com/subtitles/tinker-tailor-soldier-spy

    Tổng hợp phim 18+
    Link topic https://hdvietnam.xyz/threads/mutil...ng-nhat-ban-au-my-cap-nhat-hang-ngay.1796232/
    Nhấn nút Cảm ơn (dưới chân bài) để thấy link!

    Tổng hợp phim full Menu (Thuyết minh+Sub Việt) bluray (nethd.org)
    Nhấn nút Cảm ơn (dưới chân bài) để thấy link!

    Tổng hợp phim bộ Lồng tiếng, thuyết minh, sub việt
    Nhấn nút Cảm ơn (dưới chân bài) để thấy link!

    Tổng hợp phim hàng ngày
    Link topic https://hdvietnam.xyz/threads/tong-hop-phim-bluray-remux-iso-cap-nhat-hang-ngay.1796055/
    Nhấn nút Cảm ơn (dưới chân bài) để thấy link!

    Tổng hợp phim bluray Remux ISO 4K


    mhd
    720p
    1080p
    Thuyết minh
    Remux 4K https://www.hdvietnam.xyz/threads/r...remux-dv-hdr-hevc-dts-hd-ma-5-1-top1.1906238/
    ISO 4K https://www.hdvietnam.xyz/threads/i...r-spy-2011-uhd-dv-hevc-dts-hd-ma-2-0.1906585/
     
    Chỉnh sửa cuối: 19/2/24

Chia sẻ trang này