[Fshare] [Remux 4K|H Động] Alienoid 2022 PROPER 2160p BluRay REMUX HEVC DV DTS-HD MA - Cuộc chiến xuyên không

Thảo luận trong 'Bluray Remux 4K' bắt đầu bởi canodinh, 20/1/23.

  1. canodinh

    canodinh Uploader

    Tham gia ngày:
    10/9/11
    Bài viết:
    21,653
    Đã được cảm ơn:
    260,677
    Alienoid 2022 PROPER 2160p BluRay REMUX HEVC DV DTS-HD MA TrueHD 7.1.Atmos-FGT




    Cuộc chiến xuyên không

    [​IMG]


    The door of time opens between the swordsman who wants to seize the legendary divine sword at the end of the Goryeo Dynasty and those who chase after an alien prisoner imprisoned in a human …

    General

    Unique ID : 56095382538795726347053750892424861265 (0x2A3393E3F8ED762DFC73E8842AA41651)
    Complete name : C:\phim\Alienoid.2022.KOREAN.PROPER.2160p.BluRay.REMUX.HEVC.DV.DTS-HD.MA.TrueHD.7.1.Atmos-FGT.mkv
    Format : Matroska
    Format version : Version 4
    File size : 83.6 GiB
    Duration : 2 h 22 min
    Overall bit rate mode : Variable
    Overall bit rate : 83.8 Mb/s
    Movie name : Alienoid.2022.KOREAN.PROPER.2160p.BluRay.REMUX.HEVC.DTS-HD.MA.TrueHD.7.1.Atmos-FGT
    Encoded date : UTC 2023-01-18 19:10:46
    Writing application : mkvmerge v73.0.0 ('25 or 6 to 4') 64-bit
    Writing library : libebml v1.4.4 + libmatroska v1.7.1

    Video
    ID : 1
    ID in the original source medium : 4113 (0x1011)
    Format : HEVC
    Format/Info : High Efficiency Video Coding
    Format profile : Main [email protected]@High
    HDR format : Dolby Vision, Version 1.0, dvhe.07.06, BL+EL+RPU, Blu-ray compatible / SMPTE ST 2086, HDR10 compatible
    Codec ID : V_MPEGH/ISO/HEVC
    Duration : 2 h 22 min
    Bit rate : 71.3 Mb/s
    Width : 3 840 pixels
    Height : 2 160 pixels
    Display aspect ratio : 16:9
    Frame rate mode : Constant
    Frame rate : 23.976 (24000/1001) FPS
    Color space : YUV
    Chroma subsampling : 4:2:0 (Type 2)
    Bit depth : 10 bits
    Bits/(Pixel*Frame) : 0.359
    Stream size : 71.1 GiB (85%)
    Language : English
    Default : No
    Forced : No
    Color range : Limited
    Color primaries : BT.2020
    Transfer characteristics : PQ
    Matrix coefficients : BT.2020 non-constant
    Mastering display color primaries : Display P3
    Mastering display luminance : min: 0.0001 cd/m2, max: 1000 cd/m2
    Maximum Content Light Level : 661 cd/m2
    Maximum Frame-Average Light Level : 207 cd/m2
    Original source medium : Blu-ray

    Audio #1
    ID : 2
    ID in the original source medium : 4353 (0x1101)
    Format : MLP FBA 16-ch
    Format/Info : Meridian Lossless Packing FBA with 16-channel presentation
    Commercial name : Dolby TrueHD with Dolby Atmos
    Codec ID : A_TRUEHD
    Duration : 2 h 22 min
    Bit rate mode : Variable
    Bit rate : 3 303 kb/s
    Maximum bit rate : 5 397 kb/s
    Channel(s) : 8 channels
    Channel layout : L R C LFE Ls Rs Lb Rb
    Sampling rate : 48.0 kHz
    Frame rate : 1 200.000 FPS (40 SPF)
    Bit depth : 24 bits
    Compression mode : Lossless
    Stream size : 3.30 GiB (4%)
    Title : TrueHD 7.1 Atmos
    Language : Korean
    Default : Yes
    Forced : No
    Original source medium : Blu-ray
    Number of dynamic objects : 13
    Bed channel count : 1 channel
    Bed channel configuration : LFE

    Audio #2
    ID : 3
    Format : DTS XLL
    Format/Info : Digital Theater Systems
    Commercial name : DTS-HD Master Audio
    Codec ID : A_DTS
    Duration : 2 h 22 min
    Bit rate mode : Variable
    Bit rate : 4 014 kb/s
    Channel(s) : 8 channels
    Channel layout : C L R LFE Lb Rb Lss Rss
    Sampling rate : 48.0 kHz
    Frame rate : 93.750 FPS (512 SPF)
    Bit depth : 24 bits
    Compression mode : Lossless
    Stream size : 4.00 GiB (5%)
    Title : DTS-HD MA 7.1
    Language : Korean
    Default : No
    Forced : No

    Audio #3
    ID : 4
    ID in the original source medium : 4353 (0x1101)
    Format : AC-3
    Format/Info : Audio Coding 3
    Commercial name : Dolby Digital
    Format settings : Dolby Surround EX
    Codec ID : A_AC3
    Duration : 2 h 22 min
    Bit rate mode : Constant
    Bit rate : 640 kb/s
    Channel(s) : 6 channels
    Channel layout : L R C LFE Ls Rs
    Sampling rate : 48.0 kHz
    Frame rate : 31.250 FPS (1536 SPF)
    Compression mode : Lossy
    Stream size : 654 MiB (1%)
    Title : DD 5.1
    Language : Korean
    Service kind : Complete Main
    Default : No
    Forced : No
    Original source medium : Blu-ray

    Audio #4
    ID : 5
    ID in the original source medium : 4354 (0x1102)
    Format : DTS XLL
    Format/Info : Digital Theater Systems
    Commercial name : DTS-HD Master Audio
    Codec ID : A_DTS
    Duration : 2 h 22 min
    Bit rate mode : Variable
    Bit rate : 2 476 kb/s
    Channel(s) : 6 channels
    Channel layout : C L R Ls Rs LFE
    Sampling rate : 48.0 kHz
    Frame rate : 93.750 FPS (512 SPF)
    Bit depth : 16 bits
    Compression mode : Lossless
    Delay relative to video : 6 ms
    Stream size : 2.47 GiB (3%)
    Title : DTS-HD MA 5.1
    Language : English
    Default : No
    Forced : No
    Original source medium : Blu-ray

    Audio #5
    ID : 6
    ID in the original source medium : 4352 (0x1100)
    Format : DTS XLL
    Format/Info : Digital Theater Systems
    Commercial name : DTS-HD Master Audio
    Codec ID : A_DTS
    Duration : 2 h 22 min
    Bit rate mode : Variable
    Bit rate : 1 991 kb/s
    Channel(s) : 6 channels
    Channel layout : C L R Ls Rs LFE
    Sampling rate : 48.0 kHz
    Frame rate : 93.750 FPS (512 SPF)
    Bit depth : 16 bits
    Compression mode : Lossless
    Stream size : 1.99 GiB (2%)
    Title : DTS-HD MA 5.1
    Language : German
    Default : No
    Forced : No
    Original source medium : Blu-ray

    Text #1
    ID : 7
    Format : UTF-8
    Codec ID : S_TEXT/UTF8
    Codec ID/Info : UTF-8 Plain Text
    Duration : 2 h 19 min
    Bit rate : 35 b/s
    Count of elements : 1335
    Stream size : 36.5 KiB (0%)
    Language : English
    Default : No
    Forced : No

    Text #2
    ID : 8
    Format : UTF-8
    Codec ID : S_TEXT/UTF8
    Codec ID/Info : UTF-8 Plain Text
    Duration : 2 h 19 min
    Bit rate : 40 b/s
    Count of elements : 1389
    Stream size : 41.1 KiB (0%)
    Title : SDH
    Language : English
    Default : No
    Forced : No

    Text #3
    ID : 9
    ID in the original source medium : 4768 (0x12A0)
    Format : PGS
    Muxing mode : zlib
    Codec ID : S_HDMV/PGS
    Codec ID/Info : Picture based subtitle format used on BDs/HD-DVDs
    Duration : 2 h 19 min
    Bit rate : 30.3 kb/s
    Count of elements : 2646
    Stream size : 30.1 MiB (0%)
    Language : German
    Default : No
    Forced : No
    Original source medium : Blu-ray

    Text #4
    ID : 10
    ID in the original source medium : 4769 (0x12A1)
    Format : PGS
    Muxing mode : zlib
    Codec ID : S_HDMV/PGS
    Codec ID/Info : Picture based subtitle format used on BDs/HD-DVDs
    Duration : 2 h 19 min
    Bit rate : 24.3 kb/s
    Count of elements : 2680
    Stream size : 24.1 MiB (0%)
    Language : English
    Default : No
    Forced : No
    Original source medium : Blu-ray

    Text #5
    ID : 11
    ID in the original source medium : 4770 (0x12A2)
    Format : PGS
    Muxing mode : zlib
    Codec ID : S_HDMV/PGS
    Codec ID/Info : Picture based subtitle format used on BDs/HD-DVDs
    Duration : 1 h 48 min
    Bit rate : 344 b/s
    Count of elements : 28
    Stream size : 274 KiB (0%)
    Title : FORCED
    Language : German
    Default : No
    Forced : No
    Original source medium : Blu-ray

    Text #6
    ID : 12
    Format : UTF-8
    Codec ID : S_TEXT/UTF8
    Codec ID/Info : UTF-8 Plain Text
    Duration : 2 h 19 min
    Bit rate : 40 b/s
    Count of elements : 1389
    Stream size : 41.1 KiB (0%)
    Language : English
    Default : No
    Forced : No

    Text #7
    ID : 13
    ID in the original source medium : 4608 (0x1200)
    Format : PGS
    Muxing mode : zlib
    Codec ID : S_HDMV/PGS
    Codec ID/Info : Picture based subtitle format used on BDs/HD-DVDs
    Duration : 1 h 27 min
    Bit rate : 86 b/s
    Count of elements : 8
    Stream size : 55.5 KiB (0%)
    Language : English
    Default : No
    Forced : No
    Original source medium : Blu-ray

    Menu
    00:00:00.000 : en:Chapter 01
    00:12:53.939 : en:Chapter 02
    00:24:03.775 : en:Chapter 03
    00:38:33.769 : en:Chapter 04
    00:47:11.286 : en:Chapter 05
    00:59:52.338 : en:Chapter 06
    01:11:35.374 : en:Chapter 07
    01:23:01.059 : en:Chapter 08
    01:35:07.368 : en:Chapter 09
    01:48:04.728 : en:Chapter 10
    01:59:37.336 : en:Chapter 11
    02:18:47.319 : en:Chapter 12
    02:22:34.546 : en:Chapter 13



    [​IMG] [​IMG]
    [​IMG] [​IMG]
    [​IMG] [​IMG]



    Fshare ~83.6 GB

    Nhấn nút Cảm ơn (dưới chân bài) để thấy link!


    4Share

    Nhấn nút Cảm ơn (dưới chân bài) để thấy link!


    Sub Việt

    https://subscene.com/subtitles/alienoid-alien-human-part-1-oegyein-1bu-1

    Tổng hợp phim 18+

    Link topic https://hdvietnam.xyz/threads/mutil...ng-nhat-ban-au-my-cap-nhat-hang-ngay.1796232/

    Nhấn nút Cảm ơn (dưới chân bài) để thấy link!


    Tổng hợp phim full Menu (Thuyết minh+Sub Việt) bluray (nethd.org)

    Nhấn nút Cảm ơn (dưới chân bài) để thấy link!


    Tổng hợp phim bộ Lồng tiếng, thuyết minh, sub việt

    Nhấn nút Cảm ơn (dưới chân bài) để thấy link!


    Tổng hợp phim hàng ngày

    Link topic https://hdvietnam.xyz/threads/tong-hop-phim-bluray-remux-iso-cap-nhat-hang-ngay.1796055/

    Nhấn nút Cảm ơn (dưới chân bài) để thấy link!


    Tổng hợp phim bluray Remux ISO 4K



    mhd https://www.hdvietnam.xyz/threads/h...y-aacx264-xmd-cuoc-chien-xuyen-khong.1835163/

    720p

    1080p https://www.hdvietnam.xyz/threads/h...-1-x264-mteam-cuoc-chien-xuyen-khong.1834958/

    Thuyết minh https://www.hdvietnam.xyz/threads/h...y-cuoc-chien-xuyen-khong-thuyet-minh.1834959/

    Remux https://www.hdvietnam.xyz/threads/h...-dts-hd-ma5-1-cuoc-chien-xuyen-khong.1835162/

    Remux_Thuyết minh_sub việt https://www.hdvietnam.xyz/threads/h...uyen-khong-thuyet-minh.1834959/#post-10918580

    ISO https://www.hdvietnam.xyz/threads/i...-dts-hd-ma5-1-cuoc-chien-xuyen-khong.1835161/

    ISO 4K https://www.hdvietnam.xyz/threads/i...luray-sharphd-cuoc-chien-xuyen-khong.1843977/
     
    Chỉnh sửa cuối: 30/10/23
    vhasjc, Vũ Phan NTF, teguh and 23 others like this.
  2. justbenice

    justbenice Moderator

    Tham gia ngày:
    21/10/08
    Bài viết:
    549
    Đã được cảm ơn:
    380
    Nơi ở:
    Sao Hỏa
    Bản này sửa gì thế bác ? Mà không có sub Việt mux sẵn à bác?
     
  3. canodinh

    canodinh Uploader

    Tham gia ngày:
    10/9/11
    Bài viết:
    21,653
    Đã được cảm ơn:
    260,677
    reup
     
    TuanAnhFancy cảm ơn bài này.

Chia sẻ trang này