[Fshare] [Remux 3D|Hành Động] Blade Runner 2049 2017 1080p 3D Blu-ray Remux AVC Atmos7 1-Auro-3D 11 1 - BluDr

Thảo luận trong '3D' bắt đầu bởi canodinh, 17/8/23.

  1. canodinh

    canodinh Uploader

    Tham gia ngày:
    10/9/11
    Bài viết:
    21,444
    Đã được cảm ơn:
    258,163
    Blade Runner 2049 2017 1080p 3D Blu-ray Remux AVC Atmos7 1-Auro-3D 11 1 - BluDragon

    Tội phạm nhân bản

    [​IMG]


    35 năm sau ngày phần đầu tiên ra mắt, Blade Runner trở lại với những gương mặt mới, câu chuyện mới, đầy hứa hẹn vẫn sẽ giữ được cái “chất” khiến thương hiệu này trở thành tác phẩm kinh điển trong lịch sử điện ảnh.

    Blade Runner lấy bối cảnh thế giới tương lai, nơi ô nhiễm môi trường, khủng hoảng lương thực khiến cuộc sống của con người trở thành địa ngục. Để thoát khỏi diệt vong, nhân loại tiến hành khai phá các hành tinh khác trong vũ trụ để thành lập thuộc địa. Họ sử dụng người nhân bản do Eldon Tyrell chế tạo làm nguồn lao động chính. Người nhân bản được tạo ra rất giống với con người, có cảm xúc, suy nghĩ nhưng có tuổi thọ nhất định ở một số phiên bản.


    Blade Runner là lực lượng cảnh sát được thành lập để săn đuổi và tiêu diệt những người nhân bản lẩn trốn trên trái đất. Trong phần trước, các Blade Runner đều là con người. Sang phần phim Blade Runner 2049, các Nexus-9 cũng được tham gia lực lượng này.

    General
    Complete name : Blade.Runner.2049.2017.1080p.3D.Blu-ray.Remux.AVC.Atmos7.1-Auro-3D.11.1.-.BluDragon.mk3d
    Format : Matroska
    Format version : Version 4
    File size : 48.8 GiB
    Duration : 2 h 43 min
    Overall bit rate mode : Variable
    Overall bit rate : 42.7 Mb/s
    Frame rate : 23.976 FPS
    Encoded date : 2019-01-05 02:20:27 UTC
    Writing application : mkvmerge v29.0.0 ('Like It Or Not') 64-bit
    Writing library : libebml v1.3.6 + libmatroska v1.4.9
    Cover : Yes
    Attachments : cover.jpg

    Video
    ID : 1
    Format : AVC
    Format/Info : Advanced Video Codec
    Format profile : Stereo [email protected] / [email protected]
    MultiView_Count : 2
    MultiView_Layout : Both Eyes laced in one block (left eye first)
    Format settings : CABAC / 2 Ref Frames
    Format settings, CABAC : Yes
    Format settings, Reference frames : 2 frames
    Format settings, GOP : M=3, N=9
    Codec ID : V_MPEG4/ISO/AVC
    Duration : 2 h 43 min
    Bit rate mode : Variable
    Bit rate : 33.6 Mb/s
    Width : 1 920 pixels
    Height : 1 080 pixels
    Display aspect ratio : 16:9
    Frame rate mode : Constant
    Frame rate : 23.976 (24000/1001) FPS
    Color space : YUV
    Chroma subsampling : 4:2:0
    Bit depth : 8 bits
    Scan type : Progressive
    Bits/(Pixel*Frame) : 0.675
    Stream size : 38.3 GiB (79%)
    Title : Left: MPEG-4 AVC Video / 21959 kbps / 1080p / 23.976 fps / 16:9 / High Profile 4.1 / - Right: MPEG-4 MVC Video / 11593 kbps /
    Language : English
    Default : Yes
    Forced : No

    Audio #1
    ID : 2
    Format : DTS XLL
    Format/Info : Digital Theater Systems
    Commercial name : DTS-HD Master Audio
    Codec ID : A_DTS
    Duration : 2 h 43 min
    Bit rate mode : Variable
    Bit rate : 3 642 kb/s
    Channel(s) : 6 channels
    Channel layout : C L R Ls Rs LFE
    Sampling rate : 48.0 kHz
    Frame rate : 93.750 FPS (512 SPF)
    Bit depth : 24 bits
    Compression mode : Lossless
    Stream size : 4.16 GiB (9%)
    Title : Auro-3D 11.1 / DTS-HD Master Audio / 5.1 / 48 kHz / 3642 kbps / 24-bit (DTS Core: 5.1 / 48 kHz / 1509 kbps / 24-bit)
    Language : English
    Default : No
    Forced : No

    Audio #2
    ID : 3
    Format : MLP FBA 16-ch
    Format/Info : Meridian Lossless Packing FBA with 16-channel presentation
    Commercial name : Dolby TrueHD with Dolby Atmos
    Codec ID : A_TRUEHD
    Duration : 2 h 43 min
    Bit rate mode : Variable
    Bit rate : 4 597 kb/s
    Maximum bit rate : 5 022 kb/s
    Channel(s) : 8 channels
    Channel layout : L R C LFE Ls Rs Lb Rb
    Sampling rate : 48.0 kHz
    Frame rate : 1 200.000 FPS (40 SPF)
    Compression mode : Lossless
    Stream size : 5.25 GiB (11%)
    Title : Dolby Atmos/TrueHD Audio / 7.1-Atmos / 48 kHz / 5237 kbps / 24-bit
    Language : English
    Default : Yes
    Forced : No
    Number of dynamic objects : 11
    Bed channel count : 1 channel
    Bed channel configuration : LFE

    Audio #3
    ID : 4
    Format : AC-3
    Format/Info : Audio Coding 3
    Commercial name : Dolby Digital
    Codec ID : A_AC3
    Duration : 2 h 43 min
    Bit rate mode : Constant
    Bit rate : 640 kb/s
    Channel(s) : 6 channels
    Channel layout : L R C LFE Ls Rs
    Sampling rate : 48.0 kHz
    Frame rate : 31.250 FPS (1536 SPF)
    Compression mode : Lossy
    Stream size : 748 MiB (1%)
    Title : AC3 Core: 5.1 / 48 kHz / 640 kbps
    Language : English
    Service kind : Complete Main
    Default : No
    Forced : No

    Text #1
    ID : 5
    Format : PGS
    Muxing mode : zlib
    Codec ID : S_HDMV/PGS
    Codec ID/Info : Picture based subtitle format used on BDs/HD-DVDs
    Duration : 2 h 32 min
    Bit rate : 14.9 kb/s
    Frame rate : 0.213 FPS
    Count of elements : 1950
    Stream size : 16.3 MiB (0%)
    Language : English
    Default : No
    Forced : No





    [​IMG] [​IMG] [​IMG] [​IMG]


    Fshare ~ 48.79GB

    Nhấn nút Cảm ơn (dưới chân bài) để thấy link!


    4Share

    Nhấn nút Cảm ơn (dưới chân bài) để thấy link!


    Sub Việt

    https://subscene.com/subtitles/blade-runner-2049

    Tổng hợp phim 18+

    Link topic https://hdvietnam.xyz/threads/mutil...ng-nhat-ban-au-my-cap-nhat-hang-ngay.1796232/

    Nhấn nút Cảm ơn (dưới chân bài) để thấy link!


    Tổng hợp phim full Menu (Thuyết minh+Sub Việt) bluray (nethd.org)

    Nhấn nút Cảm ơn (dưới chân bài) để thấy link!


    Tổng hợp phim bộ Lồng tiếng, thuyết minh, sub việt

    Nhấn nút Cảm ơn (dưới chân bài) để thấy link!


    Tổng hợp phim hàng ngày

    Link topic https://hdvietnam.xyz/threads/tong-hop-phim-bluray-remux-iso-cap-nhat-hang-ngay.1796055/

    Nhấn nút Cảm ơn (dưới chân bài) để thấy link!


    Tổng hợp phim bluray Remux ISO 4K







    mhd

    720p

    1080p

    Thuyết minh

    Remux 4K https://www.hdvietnam.xyz/threads/r...ruehd-atmos-7-1-dv-hevc-hybrid-remux.1828995/

    Remux 3D https://www.hdvietnam.xyz/threads/r...emux-avc-atmos7-1-auro-3d-11-1-bludr.1878216/

    ISO
     

Chia sẻ trang này