[Fshare] [Remux 3D| H Động] Beowulf 2007 1080p 3D BluRay REMUX AVC DTS-HD MA 5 1 - Ác Quỷ Lộng Hành

Thảo luận trong '3D' bắt đầu bởi canodinh, 14/3/24.

  1. canodinh

    canodinh Uploader

    Tham gia ngày:
    10/9/11
    Bài viết:
    22,563
    Đã được cảm ơn:
    271,865
    Beowulf 2007 1080p 3D BluRay REMUX AVC DTS-HD MA 5 1


    Ác Quỷ Lộng Hành

    [​IMG]


    Phim có một cảnh nhân vật do Angelina Jolie diễn đi lên từ hồ nước không một mảnh vải che thân, và cô không nhờ diễn viên đóng thế. Phút xuất hiện trong tư thế nàng Eva của bà Smith thu hút đông đảo khán giả quan tâm đến phim từ lúc khởi quay. Sau khi công chiếu, Ác quỷ lộng hành đã chiếm vị trí quán quân trong bảng xếp hạng phim ăn khách nhất khu vực Bắc Mỹ, tuần lễ từ ngày 12 đến 16/11.
    General

    Unique ID : 190771769963157309328131775656961826041 (0x8F854E724CCDBFBB9706FBC7EB80DCF9)

    Complete name : G:\Beowulf 2007 1080p 3D BluRay REMUX AVC DTS-HD MA 5.1.mkv
    Format : Matroska
    Format version : Version 3
    File size : 26.9 GiB
    Duration : 1 h 54 min
    Overall bit rate mode : Variable
    Overall bit rate : 33.7 Mb/s
    Frame rate : 23.976 FPS
    Movie name : BEOWULF.2007.RMX.ENG.RUS.3D.Title0
    Encoded date : 2024-03-10 01:13:27 UTC
    Writing application : DVDFab 12.1.1.5
    Writing library : libebml v1.4.2 + libmatroska v1.6.3

    Video
    ID : 1
    Format : AVC
    Format/Info : Advanced Video Codec
    Format profile : Stereo [email protected] / [email protected]
    Count of views : 2
    MultiView_Layout : Both Eyes laced in one block (left eye first)
    Format settings : CABAC / 2 Ref Frames
    Format settings, CABAC : Yes
    Format settings, Reference : 2 frames
    Format settings, Slice coun : 6 slices per frame
    Codec ID : V_MPEG4/ISO/AVC
    Duration : 1 h 54 min
    Bit rate mode : Variable
    Bit rate : 29.8 Mb/s
    Width : 1 920 pixels
    Height : 1 080 pixels
    Display aspect ratio : 16:9
    Frame rate mode : Constant
    Frame rate : 23.976 (24000/1001) FPS
    Color space : YUV
    Chroma subsampling : 4:2:0
    Bit depth : 8 bits
    Scan type : Progressive
    Bits/(Pixel*Frame) : 0.599
    Stream size : 23.8 GiB (88%)
    Default : Yes
    Forced : No

    Audio
    ID : 2
    Format : DTS XLL
    Format/Info : Digital Theater Systems
    Commercial name : DTS-HD Master Audio
    Codec ID : A_DTS
    Duration : 1 h 54 min
    Bit rate mode : Variable
    Bit rate : 3 825 kb/s
    Channel(s) : 6 channels
    Channel layout : C L R Ls Rs LFE
    Sampling rate : 48.0 kHz
    Frame rate : 93.750 FPS (512 SPF)
    Bit depth : 24 bits
    Compression mode : Lossless
    Stream size : 3.05 GiB (11%)
    Language : English
    Default : Yes
    Forced : No

    Text #1
    ID : 3
    Format : PGS
    Codec ID : S_HDMV/PGS
    Codec ID/Info : Picture based subtitle format used on BDs/HD-DVDs
    Duration : 1 h 53 min
    Bit rate : 42.1 kb/s
    Frame rate : 0.372 FPS
    Count of elements : 2530
    Stream size : 34.1 MiB (0%)
    Language : English
    Default : No
    Forced : No

    Text #2
    ID : 4
    Format : PGS
    Codec ID : S_HDMV/PGS
    Codec ID/Info : Picture based subtitle format used on BDs/HD-DVDs
    Duration : 1 h 41 min
    Bit rate : 1 437 b/s
    Frame rate : 0.018 FPS
    Count of elements : 108
    Stream size : 1.05 MiB (0%)
    Language : English
    Default : No
    Forced : No

    Menu
    00:00:00.000 : en:(01)00:00:00:000
    00:05:22.196 : en:(02)00:05:22:196
    00:11:33.109 : en:(03)00:11:33:109
    00:16:56.306 : en:(04)00:16:56:306
    00:21:00.384 : en:(05)00:21:00:384
    00:28:21.490 : en:(06)00:28:21:490
    00:33:44.439 : en:(07)00:33:44:439
    00:37:41.467 : en:(08)00:37:41:467
    00:43:30.815 : en:(09)00:43:30:815
    00:48:42.126 : en:(10)00:48:42:126
    00:52:04.121 : en:(11)00:52:04:121
    00:55:14.811 : en:(12)00:55:14:811
    01:02:08.891 : en:(13)01:02:08:891
    01:08:12.295 : en:(14)01:08:12:295
    01:12:36.725 : en:(15)01:12:36:725
    01:18:50.890 : en:(16)01:18:50:890
    01:23:30.130 : en:(17)01:23:30:130
    01:26:20.756 : en:(18)01:26:20:756
    01:30:49.944 : en:(19)01:30:49:944
    01:33:52.542 : en:(20)01:33:52:542
    01:37:39.686 : en:(21)01:37:39:686
    01:42:22.970 : en:(22)01:42:22:970
    01:45:23.817 : en:(23)01:45:23:817
    01:54:12.595 : en:(24)01:54:12:595




    [​IMG] [​IMG]
    [​IMG] [​IMG]
    [​IMG] [​IMG]



    Fshare ~ 26.86GB

    Nhấn nút Cảm ơn (dưới chân bài) để thấy link!


    4Share

    Nhấn nút Cảm ơn (dưới chân bài) để thấy link!


    Sub Việt

    https://subscene.com/subtitles/beowulf-2007

    Tổng hợp phim 18+

    Link topic https://hdvietnam.xyz/threads/mutil...ng-nhat-ban-au-my-cap-nhat-hang-ngay.1796232/

    Nhấn nút Cảm ơn (dưới chân bài) để thấy link!


    Tổng hợp phim full Menu (Thuyết minh+Sub Việt) bluray (nethd.org)

    Nhấn nút Cảm ơn (dưới chân bài) để thấy link!


    Tổng hợp phim bộ Lồng tiếng, thuyết minh, sub việt

    Nhấn nút Cảm ơn (dưới chân bài) để thấy link!


    Tổng hợp phim hàng ngày

    Link topic https://hdvietnam.xyz/threads/tong-hop-phim-bluray-remux-iso-cap-nhat-hang-ngay.1796055/

    Nhấn nút Cảm ơn (dưới chân bài) để thấy link!


    Tổng hợp phim bluray Remux ISO 4K






    mhd

    720p

    1080p

    Thuyết minh

    Remux

    ISO
     

Chia sẻ trang này