[NETFLIX] Da 5 Bloods 2020 1080p WEB-DL DD+5.1 H.264-NTG

Thảo luận trong 'WEB-DL, HDTV' bắt đầu bởi hiepham, 12/6/20.

  1. hiepham

    hiepham Well-Known Member

    Tham gia ngày:
    19/9/09
    Bài viết:
    418
    Đã được cảm ơn:
    250
    [​IMG]
    Title: Da 5 Bloods
    Keywords:
    Date Published: 2020-06-12
    IMDb Rating: 8.0/10 from 20 users
    IMDb Link: https://www.imdb.com/title/tt9777644/

    Directors: Spike Lee

    Creators: Danny Bilson / Paul De Meo / Kevin Willmott / Spike Lee
    Actors: Chadwick Boseman / Jean Reno / Paul Walter Hauser / Delroy Lindo
    Introduction
    Da 5 Bloods is a movie starring Chadwick Boseman, Jean Reno, and Paul Walter Hauser. Four African-American vets battle the forces of man and nature when they return to Vietnam seeking the remains of their fallen Squad Leader and the...


    [​IMG]
    [​IMG]
    [​IMG]
    [​IMG]
    [​IMG]
    [​IMG]
    General
    Unique ID : 278980886795018001703279617656907140779 (0xD1E1C3AE57F9DC4067C81820DD1C8EAB)
    Format : Matroska
    Format version : Version 4
    File size : 7.85 GiB
    Duration : 2 h 35 min
    Overall bit rate mode : Variable
    Overall bit rate : 7 210 kb/s
    Encoded date : UTC 2020-06-12 07:16:43
    Writing application : mkvmerge v21.0.0 ('Tardigrades Will Inherit The Earth') 64-bit
    Writing library : libebml v1.3.5 + libmatroska v1.4.8

    Video
    ID : 1
    Format : AVC
    Format/Info : Advanced Video Codec
    Format profile : Main@L4
    Format settings : CABAC / 3 Ref Frames
    Format settings, CABAC : Yes
    Format settings, Reference frames : 3 frames
    Codec ID : V_MPEG4/ISO/AVC
    Duration : 2 h 35 min
    Bit rate mode : Variable
    Bit rate : 6 490 kb/s
    Maximum bit rate : 9 735 kb/s
    Width : 1 920 pixels
    Height : 1 080 pixels
    Display aspect ratio : 16:9
    Frame rate mode : Constant
    Frame rate : 24.000 FPS
    Color space : YUV
    Chroma subsampling : 4:2:0
    Bit depth : 8 bits
    Scan type : Progressive
    Bits/(Pixel*Frame) : 0.130
    Stream size : 7.01 GiB (89%)
    Writing library : x264 core 148 r2717 0d2410d
    Encoding settings : cabac=1 / ref=3 / deblock=1:0:0 / analyse=0x1:0x111 / me=umh / subme=10 / psy=1 / psy_rd=1.00:0.00 / mixed_ref=1 / me_range=24 / chroma_me=1 / trellis=2 / 8x8dct=0 / cqm=0 / deadzone=21,11 / fast_pskip=1 / chroma_qp_offset=-2 / threads=8 / lookahead_threads=1 / sliced_threads=0 / nr=0 / decimate=1 / interlaced=0 / bluray_compat=0 / stitchable=1 / constrained_intra=0 / bframes=2 / b_pyramid=0 / b_adapt=2 / b_bias=0 / direct=3 / weightb=1 / open_gop=0 / weightp=2 / keyint=250 / keyint_min=24 / scenecut=0 / intra_refresh=0 / rc_lookahead=48 / rc=2pass / mbtree=1 / bitrate=6490 / ratetol=1.0 / qcomp=0.50 / qpmin=6 / qpmax=51 / qpstep=4 / cplxblur=20.0 / qblur=0.5 / vbv_maxrate=9735 / vbv_bufsize=12980 / nal_hrd=vbr / filler=0 / ip_ratio=1.40 / aq=1:1.00
    Default : Yes
    Forced : No

    Audio
    ID : 2
    Format : E-AC-3 JOC
    Format/Info : Enhanced AC-3 with Joint Object Coding
    Commercial name : Dolby Digital Plus with Dolby Atmos
    Codec ID : A_EAC3
    Duration : 2 h 35 min
    Bit rate mode : Constant
    Bit rate : 768 kb/s
    Channel(s) : 6 channels
    Channel layout : L R C LFE Ls Rs
    Sampling rate : 48.0 kHz
    Frame rate : 31.250 FPS (1536 SPF)
    Compression mode : Lossy
    Stream size : 856 MiB (11%)
    Title : English
    Language : English
    Service kind : Complete Main
    Default : Yes
    Forced : No
    Complexity index : 16
    Number of dynamic objects : 15
    Bed channel count : 1 channel
    Bed channel configuration : LFE

    Text #1
    ID : 3
    Format : UTF-8
    Codec ID : S_TEXT/UTF8
    Codec ID/Info : UTF-8 Plain Text
    Duration : 2 h 34 min
    Bit rate : 55 b/s
    Count of elements : 1808
    Stream size : 62.4 KiB (0%)
    Language : English
    Default : No
    Forced : No

    Text #2
    ID : 4
    Format : UTF-8
    Codec ID : S_TEXT/UTF8
    Codec ID/Info : UTF-8 Plain Text
    Duration : 2 h 34 min
    Bit rate : 62 b/s
    Count of elements : 2050
    Stream size : 71.2 KiB (0%)
    Title : SDH
    Language : English
    Default : No
    Forced : No

    Text #3
    ID : 5
    Format : UTF-8
    Codec ID : S_TEXT/UTF8
    Codec ID/Info : UTF-8 Plain Text
    Duration : 2 h 34 min
    Bit rate : 86 b/s
    Count of elements : 1887
    Stream size : 98.3 KiB (0%)
    Language : Arabic
    Default : No
    Forced : No

    Text #4
    ID : 6
    Format : UTF-8
    Codec ID : S_TEXT/UTF8
    Codec ID/Info : UTF-8 Plain Text
    Duration : 2 h 34 min
    Bit rate : 45 b/s
    Count of elements : 1836
    Stream size : 51.0 KiB (0%)
    Language : Czech
    Default : No
    Forced : No

    Text #5
    ID : 7
    Format : UTF-8
    Codec ID : S_TEXT/UTF8
    Codec ID/Info : UTF-8 Plain Text
    Duration : 2 h 34 min
    Bit rate : 47 b/s
    Count of elements : 1774
    Stream size : 53.3 KiB (0%)
    Language : Danish
    Default : No
    Forced : No

    Text #6
    ID : 8
    Format : UTF-8
    Codec ID : S_TEXT/UTF8
    Codec ID/Info : UTF-8 Plain Text
    Duration : 2 h 34 min
    Bit rate : 50 b/s
    Count of elements : 1787
    Stream size : 57.1 KiB (0%)
    Language : German
    Default : No
    Forced : No

    Text #7
    ID : 9
    Format : UTF-8
    Codec ID : S_TEXT/UTF8
    Codec ID/Info : UTF-8 Plain Text
    Duration : 2 h 34 min
    Bit rate : 83 b/s
    Count of elements : 1890
    Stream size : 94.6 KiB (0%)
    Language : Greek
    Default : No
    Forced : No

    Text #8
    ID : 10
    Format : UTF-8
    Codec ID : S_TEXT/UTF8
    Codec ID/Info : UTF-8 Plain Text
    Duration : 2 h 34 min
    Bit rate : 51 b/s
    Count of elements : 1816
    Stream size : 58.4 KiB (0%)
    Language : Spanish
    Default : No
    Forced : No

    Text #9
    ID : 11
    Format : UTF-8
    Codec ID : S_TEXT/UTF8
    Codec ID/Info : UTF-8 Plain Text
    Duration : 2 h 34 min
    Bit rate : 47 b/s
    Count of elements : 1794
    Stream size : 53.3 KiB (0%)
    Title : European
    Language : Spanish
    Default : No
    Forced : No

    Text #10
    ID : 12
    Format : UTF-8
    Codec ID : S_TEXT/UTF8
    Codec ID/Info : UTF-8 Plain Text
    Duration : 2 h 34 min
    Bit rate : 46 b/s
    Count of elements : 1761
    Stream size : 52.1 KiB (0%)
    Language : Finnish
    Default : No
    Forced : No

    Text #11
    ID : 13
    Format : UTF-8
    Codec ID : S_TEXT/UTF8
    Codec ID/Info : UTF-8 Plain Text
    Duration : 2 h 34 min
    Bit rate : 50 b/s
    Count of elements : 1776
    Stream size : 57.4 KiB (0%)
    Language : French
    Default : No
    Forced : No

    Text #12
    ID : 14
    Format : UTF-8
    Codec ID : S_TEXT/UTF8
    Codec ID/Info : UTF-8 Plain Text
    Duration : 2 h 34 min
    Bit rate : 84 b/s
    Count of elements : 1852
    Stream size : 95.3 KiB (0%)
    Language : Hebrew
    Default : No
    Forced : No

    Text #13
    ID : 15
    Format : UTF-8
    Codec ID : S_TEXT/UTF8
    Codec ID/Info : UTF-8 Plain Text
    Duration : 2 h 34 min
    Bit rate : 48 b/s
    Count of elements : 1789
    Stream size : 54.6 KiB (0%)
    Language : Hungarian
    Default : No
    Forced : No

    Text #14
    ID : 16
    Format : UTF-8
    Codec ID : S_TEXT/UTF8
    Codec ID/Info : UTF-8 Plain Text
    Duration : 2 h 34 min
    Bit rate : 47 b/s
    Count of elements : 1908
    Stream size : 53.6 KiB (0%)
    Language : Indonesian
    Default : No
    Forced : No

    Text #15
    ID : 17
    Format : UTF-8
    Codec ID : S_TEXT/UTF8
    Codec ID/Info : UTF-8 Plain Text
    Duration : 2 h 34 min
    Bit rate : 48 b/s
    Count of elements : 1838
    Stream size : 54.5 KiB (0%)
    Language : Italian
    Default : No
    Forced : No

    Text #16
    ID : 18
    Format : UTF-8
    Codec ID : S_TEXT/UTF8
    Codec ID/Info : UTF-8 Plain Text
    Duration : 2 h 34 min
    Bit rate : 48 b/s
    Count of elements : 1781
    Stream size : 54.9 KiB (0%)
    Language : Japanese
    Default : No
    Forced : No

    Text #17
    ID : 19
    Format : UTF-8
    Codec ID : S_TEXT/UTF8
    Codec ID/Info : UTF-8 Plain Text
    Duration : 2 h 34 min
    Bit rate : 60 b/s
    Count of elements : 1989
    Stream size : 69.1 KiB (0%)
    Language : Korean
    Default : No
    Forced : No

    Text #18
    ID : 20
    Format : UTF-8
    Codec ID : S_TEXT/UTF8
    Codec ID/Info : UTF-8 Plain Text
    Duration : 2 h 34 min
    Bit rate : 43 b/s
    Count of elements : 1755
    Stream size : 49.5 KiB (0%)
    Language : Norwegian Bokmal
    Default : No
    Forced : No

    Text #19
    ID : 21
    Format : UTF-8
    Codec ID : S_TEXT/UTF8
    Codec ID/Info : UTF-8 Plain Text
    Duration : 2 h 34 min
    Bit rate : 44 b/s
    Count of elements : 1662
    Stream size : 49.8 KiB (0%)
    Language : Dutch
    Default : No
    Forced : No

    Text #20
    ID : 22
    Format : UTF-8
    Codec ID : S_TEXT/UTF8
    Codec ID/Info : UTF-8 Plain Text
    Duration : 2 h 34 min
    Bit rate : 45 b/s
    Count of elements : 1795
    Stream size : 52.1 KiB (0%)
    Language : Polish
    Default : No
    Forced : No

    Text #21
    ID : 23
    Format : UTF-8
    Codec ID : S_TEXT/UTF8
    Codec ID/Info : UTF-8 Plain Text
    Duration : 2 h 34 min
    Bit rate : 48 b/s
    Count of elements : 1810
    Stream size : 55.4 KiB (0%)
    Language : Portuguese
    Default : No
    Forced : No

    Text #22
    ID : 24
    Format : UTF-8
    Codec ID : S_TEXT/UTF8
    Codec ID/Info : UTF-8 Plain Text
    Duration : 2 h 34 min
    Bit rate : 46 b/s
    Count of elements : 1805
    Stream size : 52.4 KiB (0%)
    Title : Brazilian
    Language : Portuguese
    Default : No
    Forced : No

    Text #23
    ID : 25
    Format : UTF-8
    Codec ID : S_TEXT/UTF8
    Codec ID/Info : UTF-8 Plain Text
    Duration : 2 h 34 min
    Bit rate : 56 b/s
    Count of elements : 1787
    Stream size : 63.6 KiB (0%)
    Language : Romanian
    Default : No
    Forced : No

    Text #24
    ID : 26
    Format : UTF-8
    Codec ID : S_TEXT/UTF8
    Codec ID/Info : UTF-8 Plain Text
    Duration : 2 h 34 min
    Bit rate : 82 b/s
    Count of elements : 1786
    Stream size : 93.3 KiB (0%)
    Language : Russian
    Default : No
    Forced : No

    Text #25
    ID : 27
    Format : UTF-8
    Codec ID : S_TEXT/UTF8
    Codec ID/Info : UTF-8 Plain Text
    Duration : 2 h 34 min
    Bit rate : 48 b/s
    Count of elements : 1754
    Stream size : 54.9 KiB (0%)
    Language : Swedish
    Default : No
    Forced : No

    Text #26
    ID : 28
    Format : UTF-8
    Codec ID : S_TEXT/UTF8
    Codec ID/Info : UTF-8 Plain Text
    Duration : 2 h 34 min
    Bit rate : 133 b/s
    Count of elements : 1813
    Stream size : 151 KiB (0%)
    Language : Thai
    Default : No
    Forced : No

    Text #27
    ID : 29
    Format : UTF-8
    Codec ID : S_TEXT/UTF8
    Codec ID/Info : UTF-8 Plain Text
    Duration : 2 h 34 min
    Bit rate : 50 b/s
    Count of elements : 1814
    Stream size : 57.2 KiB (0%)
    Language : Turkish
    Default : No
    Forced : No

    Text #28
    ID : 30
    Format : UTF-8
    Codec ID : S_TEXT/UTF8
    Codec ID/Info : UTF-8 Plain Text
    Duration : 2 h 34 min
    Bit rate : 69 b/s
    Count of elements : 1744
    Stream size : 78.8 KiB (0%)
    Language : Vietnamese
    Default : No
    Forced : No

    Text #29
    ID : 31
    Format : UTF-8
    Codec ID : S_TEXT/UTF8
    Codec ID/Info : UTF-8 Plain Text
    Duration : 2 h 34 min
    Bit rate : 54 b/s
    Count of elements : 1811
    Stream size : 61.4 KiB (0%)
    Title : Simplified
    Language : Chinese
    Default : No
    Forced : No

    Text #30
    ID : 32
    Format : UTF-8
    Codec ID : S_TEXT/UTF8
    Codec ID/Info : UTF-8 Plain Text
    Duration : 2 h 34 min
    Bit rate : 52 b/s
    Count of elements : 1798
    Stream size : 59.2 KiB (0%)
    Title : Traditional
    Language : Chinese
    Default : No
    Forced : No​



    Password to unrar: dolbyvision.org
     

Chia sẻ trang này