[Other] [Hành Động | Tốc Độ] Need For Speed 2014 720p HDCAM x264 Pimp4003 - Vua Tốc Độ (Tay Đua Thần Tốc)

Thảo luận trong 'mHD, SD' bắt đầu bởi linhlee0709, 20/3/14.

  1. linhlee0709

    linhlee0709 Banned

    Tham gia ngày:
    1/2/14
    Bài viết:
    1,836
    Đã được cảm ơn:
    3,275
    Need For Speed 2014 720p HDCAM x264 Pimp4003
    Vua Tốc Độ (Tay Đua Thần Tốc)
    Aaron Paul, Chillie Mo, Dominic Cooper
    Ratings: 7.3/10 from 11,119 users



    [​IMG]

    [​IMG]

    Mã:
    Video
    ID : 2
    Format : AVC
    Format/Info : Advanced Video Codec
    Format profile : [email protected]
    Format settings, CABAC : No
    Format settings, ReFrames : 1 frame
    Format settings, GOP : M=1, N=25
    Muxing mode : Container [email protected]
    Codec ID : avc1
    
    
    Codec ID/Info : Advanced Video Coding
    Duration : 2h 1mn
    Bit rate : 1 996 Kbps
    Width : 1 280 pixels
    Height : 720 pixels
    Display aspect ratio : 16:9
    Frame rate mode : Constant
    Frame rate : 25.000 fps
    Color space : YUV
    Chroma subsampling : 4:2:0
    Bit depth : 8 bits
    Scan type : Progressive
    Bits/(Pixel*Frame) : 0.087
    Stream size : 1.70 GiB (94%)
    Writing library : Pó
    Language : English
    Audio
    ID : 1
    Format : AAC
    Format/Info : Advanced Audio Codec
    Format profile : LC
    Codec ID : 40
    Duration : 2h 1mn
    Bit rate mode : Constant
    Bit rate : 128 Kbps
    Channel(s) : 2 channels
    Channel positions : Front: L R
    Sampling rate : 48.0 KHz
    Compression mode : Lossy
    Stream size : 112 MiB (6%)
    Language : English
    [​IMG]
    [​IMG]
    [​IMG]
    [​IMG]
    [​IMG]
    [​IMG]
    [​IMG]
    [​IMG]
    [​IMG] [​IMG] [​IMG]

    MORE SCREEN

    [​IMG]
    [​IMG]
    [video=youtube;c2O1M3nQjC4]http://www.youtube.com/watch?v=c2O1M3nQjC4[/video]

    1 Link ~ 1,8GB
    [​IMG]
    FSHARE
    Nhấn nút Cảm ơn (dưới chân bài) để thấy link!

    [​IMG]
    TENLUA
    ALL VESIONS 720p & 1080p & ReMux
    Nhấn nút Cảm ơn (dưới chân bài) để thấy link!



    ==============
    BẢN ĐẸp BLURAY
    ==============

    [​IMG]
    SUB
    [​IMG]

    Kho Phim HD Update Hằng Ngày

    [​IMG]
     
    Chỉnh sửa cuối: 12/7/14
    thangvinhtb and nhoxsky140296 like this.
  2. mecsij

    mecsij New Member

    Tham gia ngày:
    1/3/14
    Bài viết:
    9
    Đã được cảm ơn:
    0
    Ðề: [Hành Động | Tốc Độ] Need For Speed 2014 720p HDCAM x264 Pimp4003 - Vua Tốc Độ (Tay Đua Thần Tốc)

    thanks thớt nhiều.
     
  3. linhlee0709

    linhlee0709 Banned

    Tham gia ngày:
    1/2/14
    Bài viết:
    1,836
    Đã được cảm ơn:
    3,275
    Ðề: [Hành Động | Tốc Độ] Need For Speed 2014 720p HDCAM x264 Pimp4003 - Vua Tốc Độ (Tay Đua Thần Tốc)

    mong bác ủng họ ..................
     
  4. lu0ne

    lu0ne New Member

    Tham gia ngày:
    6/3/13
    Bài viết:
    7
    Đã được cảm ơn:
    1
    lâu có bản HD quá, chờ tiếp thôi
     

Chia sẻ trang này