[Hài] No Hard Feelings - Vú Em Dạy Yêu (2023) WEB-DL DDP5.1 H.264 (Vietsub)

Thảo luận trong 'WEB-DL, HDTV' bắt đầu bởi Phê Phim, 12/8/23.

  1. Phê Phim

    Phê Phim Huyền Thoại

    Tham gia ngày:
    1/2/10
    Bài viết:
    3,154
    Đã được cảm ơn:
    46,019
    Phụ đề sạch không quảng cáo

    No Hard Feelings - Vú Em Dạy Yêu (2023) (Vietsub) [1080P-4K]

    [​IMG]

    【 INFO 】

    Trong phim, Jennifer Lawrence thủ vai một cô gái lẳng lơ, sống này đây mai đó với đủ loại công việc. Cho tới một ngày, một cặp vợ chồng trung niên tìm tới và thuê cô quyến rũ cậu con trai 19 tuổi của mình. Thế là hành trình của bà cô U40 đi cò cưa trai trẻ bắt đầu, đầy khó khăn với biết bao tình huống khó đỡ, éo le.


    Folder gồm:

    (Vietsub) No.Hard.Feelings.2023.1080p.AMZN.WEB-DL.DDP5.1.H.264-FLUX-KM

    (Vietsub) No.Hard.Feelings.2023.2160p.WEB-DL.DDP5.1.DV.HDR.H.265-FLUX-KM


    【 MEDIA INFO 】
    HTML:
    General
    Unique ID                                : 138445290779074409568314869043099011439 (0x682797D68564CDDD36BC9BDB0E2F096F)
    Complete name                            : (Vietsub) No.Hard.Feelings.2023.1080p.AMZN.WEB-DL.DDP5.1.H.264-FLUX-KM.mkv
    
    
    Format                                   : Matroska
    Format version                           : Version 4
    File size                                : 7.06 GiB
    Duration                                 : 1 h 43 min
    Overall bit rate                         : 9 733 kb/s
    Encoded date                             : UTC 2023-08-11 14:35:46
    Writing application                      : mkvmerge v78.0 ('Running') 64-bit
    Writing library                          : libebml v1.4.4 + libmatroska v1.7.1
    Video
    ID                                       : 1
    Format                                   : AVC
    Format/Info                              : Advanced Video Codec
    Format profile                           : High@L4
    Format settings                          : CABAC / 4 Ref Frames
    Format settings, CABAC                   : Yes
    Format settings, Reference frames        : 4 frames
    Codec ID                                 : V_MPEG4/ISO/AVC
    Duration                                 : 1 h 43 min
    Bit rate mode                            : Constant
    Bit rate                                 : 9 089 kb/s
    Nominal bit rate                         : 10 000 kb/s
    Width                                    : 1 920 pixels
    Height                                   : 1 040 pixels
    Display aspect ratio                     : 1.85:1
    Frame rate mode                          : Constant
    Frame rate                               : 23.976 (24000/1001) FPS
    Color space                              : YUV
    Chroma subsampling                       : 4:2:0
    Bit depth                                : 8 bits
    Scan type                                : Progressive
    Bits/(Pixel*Frame)                       : 0.190
    Stream size                              : 6.59 GiB (93%)
    Language                                 : English
    Default                                  : Yes
    Forced                                   : No
    Color range                              : Limited
    Color primaries                          : BT.709
    Transfer characteristics                 : BT.709
    Matrix coefficients                      : BT.709
    Audio
    ID                                       : 2
    Format                                   : E-AC-3
    Format/Info                              : Enhanced AC-3
    Commercial name                          : Dolby Digital Plus
    Codec ID                                 : A_EAC3
    Duration                                 : 1 h 43 min
    Bit rate mode                            : Constant
    Bit rate                                 : 640 kb/s
    Channel(s)                               : 6 channels
    Channel layout                           : L R C LFE Ls Rs
    Sampling rate                            : 48.0 kHz
    Frame rate                               : 31.250 FPS (1536 SPF)
    Compression mode                         : Lossy
    Stream size                              : 475 MiB (7%)
    Language                                 : English
    Service kind                             : Complete Main
    Default                                  : Yes
    Forced                                   : No
    Text #1
    ID                                       : 3
    Format                                   : UTF-8
    Codec ID                                 : S_TEXT/UTF8
    Codec ID/Info                            : UTF-8 Plain Text
    Duration                                 : 4 s 4 ms
    Bit rate                                 : 71 b/s
    Frame rate                               : 0.500 FPS
    Count of elements                        : 2
    Stream size                              : 36.0 Bytes (0%)
    Title                                    : Forced
    Language                                 : English
    Default                                  : No
    Forced                                   : No
    Text #2
    ID                                       : 4
    Format                                   : UTF-8
    Codec ID                                 : S_TEXT/UTF8
    Codec ID/Info                            : UTF-8 Plain Text
    Duration                                 : 1 h 35 min
    Bit rate                                 : 67 b/s
    Frame rate                               : 0.266 FPS
    Count of elements                        : 1527
    Stream size                              : 47.2 KiB (0%)
    Title                                    : British
    Language                                 : English
    Default                                  : No
    Forced                                   : No
    Text #3
    ID                                       : 5
    Format                                   : UTF-8
    Codec ID                                 : S_TEXT/UTF8
    Codec ID/Info                            : UTF-8 Plain Text
    Duration                                 : 1 h 40 min
    Bit rate                                 : 77 b/s
    Frame rate                               : 0.299 FPS
    Count of elements                        : 1810
    Stream size                              : 57.5 KiB (0%)
    Title                                    : SDH
    Language                                 : English
    Default                                  : No
    Forced                                   : No
    Text #4
    ID                                       : 6
    Format                                   : UTF-8
    Codec ID                                 : S_TEXT/UTF8
    Codec ID/Info                            : UTF-8 Plain Text
    Duration                                 : 1 h 41 min
    Bit rate                                 : 56 b/s
    Frame rate                               : 0.261 FPS
    Count of elements                        : 1590
    Stream size                              : 42.4 KiB (0%)
    Language                                 : German
    Default                                  : No
    Forced                                   : No
    Text #5
    ID                                       : 7
    Format                                   : UTF-8
    Codec ID                                 : S_TEXT/UTF8
    Codec ID/Info                            : UTF-8 Plain Text
    Duration                                 : 1 h 42 min
    Bit rate                                 : 54 b/s
    Frame rate                               : 0.275 FPS
    Count of elements                        : 1689
    Stream size                              : 41.0 KiB (0%)
    Title                                    : Latin American
    Language                                 : Spanish
    Default                                  : No
    Forced                                   : No
    Text #6
    ID                                       : 8
    Format                                   : UTF-8
    Codec ID                                 : S_TEXT/UTF8
    Codec ID/Info                            : UTF-8 Plain Text
    Duration                                 : 1 h 41 min
    Bit rate                                 : 59 b/s
    Frame rate                               : 0.278 FPS
    Count of elements                        : 1695
    Stream size                              : 44.3 KiB (0%)
    Language                                 : Spanish
    Default                                  : No
    Forced                                   : No
    Text #7
    ID                                       : 9
    Format                                   : UTF-8
    Codec ID                                 : S_TEXT/UTF8
    Codec ID/Info                            : UTF-8 Plain Text
    Duration                                 : 1 h 42 min
    Bit rate                                 : 48 b/s
    Frame rate                               : 0.233 FPS
    Count of elements                        : 1437
    Stream size                              : 36.5 KiB (0%)
    Language                                 : French
    Default                                  : No
    Forced                                   : No
    Text #8
    ID                                       : 10
    Format                                   : UTF-8
    Codec ID                                 : S_TEXT/UTF8
    Codec ID/Info                            : UTF-8 Plain Text
    Duration                                 : 1 h 42 min
    Bit rate                                 : 57 b/s
    Frame rate                               : 0.266 FPS
    Count of elements                        : 1631
    Stream size                              : 43.3 KiB (0%)
    Language                                 : Italian
    Default                                  : No
    Forced                                   : No
    Text #9
    ID                                       : 11
    Format                                   : UTF-8
    Codec ID                                 : S_TEXT/UTF8
    Codec ID/Info                            : UTF-8 Plain Text
    Duration                                 : 1 h 41 min
    Bit rate                                 : 48 b/s
    Frame rate                               : 0.171 FPS
    Count of elements                        : 1045
    Stream size                              : 36.2 KiB (0%)
    Language                                 : Dutch
    Default                                  : No
    Forced                                   : No
    Text #10
    ID                                       : 12
    Format                                   : UTF-8
    Codec ID                                 : S_TEXT/UTF8
    Codec ID/Info                            : UTF-8 Plain Text
    Duration                                 : 1 h 42 min
    Bit rate                                 : 54 b/s
    Frame rate                               : 0.250 FPS
    Count of elements                        : 1531
    Stream size                              : 40.5 KiB (0%)
    Language                                 : Polish
    Default                                  : No
    Forced                                   : No
    Text #11
    ID                                       : 13
    Format                                   : UTF-8
    Codec ID                                 : S_TEXT/UTF8
    Codec ID/Info                            : UTF-8 Plain Text
    Duration                                 : 1 h 42 min
    Bit rate                                 : 58 b/s
    Frame rate                               : 0.268 FPS
    Count of elements                        : 1649
    Stream size                              : 43.8 KiB (0%)
    Title                                    : Brazilian
    Language                                 : Portuguese
    Default                                  : No
    Forced                                   : No
    Text #12
    ID                                       : 14
    Format                                   : UTF-8
    Codec ID                                 : S_TEXT/UTF8
    Codec ID/Info                            : UTF-8 Plain Text
    Duration                                 : 1 h 41 min
    Bit rate                                 : 50 b/s
    Frame rate                               : 0.173 FPS
    Count of elements                        : 1058
    Stream size                              : 38.0 KiB (0%)
    Language                                 : Swedish
    Default                                  : No
    Forced                                   : No
    Text #13
    ID                                       : 15
    Format                                   : UTF-8
    Codec ID                                 : S_TEXT/UTF8
    Codec ID/Info                            : UTF-8 Plain Text
    Duration                                 : 1 h 43 min
    Bit rate                                 : 86 b/s
    Frame rate                               : 0.208 FPS
    Count of elements                        : 1286
    Stream size                              : 65.2 KiB (0%)
    Language                                 : Vietnamese
    Default                                  : Yes
    Forced                                   : No

    【 SCREENSHOT 】
    [​IMG]
    [​IMG]
    [​IMG]

    [​IMG]
    Download:
    1080p:
    Nhấn nút Cảm ơn (dưới chân bài) để thấy link!

    4K:
    Nhấn nút Cảm ơn (dưới chân bài) để thấy link!


    pass: hdvietnam​
     

Chia sẻ trang này