[Fshare] Bộ Sưu Tập TV Series 1080p Bluray REMUX | x264 - x265 | WEB-DL ~ (Lồng Tiếng - Vietsub)

Thảo luận trong 'Phim bộ - Series' bắt đầu bởi tremocoivo, 25/10/23.

  1. tremocoivo

    tremocoivo Uploader

    Tham gia ngày:
    25/2/10
    Bài viết:
    3,947
    Đã được cảm ơn:
    106,312
    Giới tính:
    Nam
    Bộ Sưu Tập TV Series 1080p Bluray REMUX | x264 - x265 | WEB-DL
    {Lồng Tiếng - Sub Việt Mux Sẵn}

    [​IMG]

    Chào tất cả mọi người!
    Sau một thời gian theo đuổi mảng TV Series mình đã upload được khá nhiều bộ phim, có những bộ phim hay, chất lượng đã upload lên khá lâu tuy nhiên lại không thể tiếp cận đến nhiều người tải vì lý do các phim nằm rải rác ở nhiều trang, qua một thời gian "nằm bất động" thì file đã bị xóa không thương tiếc. Vì vậy nhằm giúp tất cả mọi người được thưởng thức trọn vẹn mình sẽ tổng hợp lại những phim mình đã up vào chung 1 Topic này và về sau phim mới sẽ được cập nhật trực tiếp tại đây luôn.


    Tiêu chí upload TV Series của mình sẽ là:
    - Phim có điểm IMDB từ cao xuống dưới theo danh sách này: https://www.imdb.com/chart/toptv/?ref_=nv_tvv_250
    - Tất cả phim đều phải có Vietsub, 1 số phim có âm thanh lồng tiếng (được lấy từ NF), không dùng âm thanh thuyết minh.
    - Ưu tiên Tv Series Âu, Mỹ và 1 số ít là Hàn, Nhật (nguồn từ NF, AMZN, DSNP, ATVP). Phim Châu Á dành cho các uploader khác, mình không rành mảng này.
    - Các phim hot mới phát hành sẽ được cập nhật thường xuyên ngay khi có Vietsub hoặc ra trọn bộ thì mình mới làm 1 lần.
    - Chất lượng phim xếp theo thứ tự giảm dần sẽ là 1080p Bluray REMUX > Bluray x264-x265 > WEB-DL.

    :) Những phim nào mình đã có sẽ cố gắng REUP trong khả năng có thể (vui lòng inbox để mình cập nhật nhanh hơn, đôi khi comment trong bài viết sẽ bị trôi và mình không thấy được hết).
    :) Những phim nào chưa có và đủ tiêu chí mình nêu trên mọi người có thể yêu cầu vào Topic này.

    Và cuối cùng là.....
    LINK TỔNG HỢP TV SERIES
    [​IMG]
     
  2. tremocoivo

    tremocoivo Uploader

    Tham gia ngày:
    25/2/10
    Bài viết:
    3,947
    Đã được cảm ơn:
    106,312
    Giới tính:
    Nam
  3. tremocoivo

    tremocoivo Uploader

    Tham gia ngày:
    25/2/10
    Bài viết:
    3,947
    Đã được cảm ơn:
    106,312
    Giới tính:
    Nam
    DANH SÁCH PHIM ĐÃ CÓ

    Đây là danh sách toàn bộ TV Series mình đã upload. Sẽ bao gồm tên phim, năm phát hành, chất lượng tốt nhất hiện tại. Sẽ được sắp xếp theo thứ tự ABC nha.
     
    Chỉnh sửa cuối: 17/5/24 lúc 20:56
    Pi chan, akonytu, mar_linh1 and 15 others like this.
  4. tremocoivo

    tremocoivo Uploader

    Tham gia ngày:
    25/2/10
    Bài viết:
    3,947
    Đã được cảm ơn:
    106,312
    Giới tính:
    Nam

    Tập Làm Người Xấu (2008)
    Breaking Bad 2008 Complete Series 1080p BluRay AAC 5.1 HEVC x265-Silence {Sub Việt Mux Sẵn}

    [​IMG]
    https://www.imdb.com/title/tt0903747/
    Lấy bối cảnh tại Albuquerque, New Mexico trong khoảng thời gian từ năm 2008 đến năm 2010.[13] Breaking Bad dõi theo cuộc sống của Walter White, một giáo viên hóa học trung học hiền lành, vì muốn kiếm thêm tiền cho gia đình khi biết tin mình bị ung thư giai đoạn cuối, ông đã dần chuyển mình trở thành một tên buôn bán ma túy đá địa phương đầy tàn nhẫn. Ban đầu, Walter chỉ sản xuất một vài mẻ ma túy nhỏ trong gian phòng thì nghiệm cuốn chiếu, cùng với đồng sự là cậu học trò cũ Jesse Pinkman. Nhưng sau đó, hai thầy trò nhanh chóng mở rộng quy mô làm ăn khi điều chế thành công một loại ma túy đá có màu xanh lam, vô cùng tinh khiết và rất đắt hàng. Từ đây, Walter White lấy tên "Heisenberg" để che giấu danh tính thật của bản thân. Do các hoạt động buôn bán chất cấm của mình, Walter cuối cùng cũng phải đối mặt với hàng loạt mâu thuẫn từ gia đình, Lực lượng Chống ma túy (DEA) liên quan tới người em rể Hank Schrader, cho đến các băng đảng địa phương hay Mexico và nhà phân phối khu vực của họ, khiến cuộc sống của ông gặp rất nhiều rủi ro.

    Mã:
    
    General
    Filename.......: Breaking.Bad.S01E01.Pilot.1080p.BluRay.x265.Silence_Vietsub
    Container......: Matroska
    Duration.......: 58 min 6 s 590 ms
    Size...........: 2.56 GiB
    
    Video
    Codec..........:  Main 10@L4@Main 10 bits
    Type...........:
    Resolution.....: 1920x1080
    Aspect ratio...: 1.778:1
    Bit rate.......: 5 497 kb/s
    Frame rate.....: 23.976 (24000/1001) FPS
    
    Audio
    Format.........: AAC
    Channels.......: 6 channels
    Bit rate.......: 695 kb/s
    Language.......: English
    
    Audio
    Format.........: HE-AAC
    Channels.......: 2 channels
    Bit rate.......: 80.0 kb/s
    Language.......: English Commentary
    
    Subtitles......: PGS English
    Subtitles......: PGS English
    Subtitles......: UTF-8 Vietnamese Vietnam
    
    
    

    SCREENSHOT
    [​IMG]
    DOWNLOAD
    [​IMG]
     
  5. tremocoivo

    tremocoivo Uploader

    Tham gia ngày:
    25/2/10
    Bài viết:
    3,947
    Đã được cảm ơn:
    106,312
    Giới tính:
    Nam
    Thị Trấn Banshee (2013-2016) - Trọn Bộ 4 Phần
    Banshee 2013 Complete Series 1080p BluRay REMUX DTS-HD MA 5.1 AVC-FraMeSToR {Sub Việt Mux Sẵn}

    [​IMG]
    https://www.imdb.com/title/tt2017109

    Banshee là một chuỗi series gồm 4 phần, mang một chất rất riêng biệt của kênh Cinemax. Fan của thể loại hành động, hình sự chắc chắn sẽ không thể nào bỏ qua bộ phim này. Hành động, máu me, bạo lực, và sex là những gì mà loạt phim sẽ mang lại cho bạn.
    Nội dung phim kể về một tên siêu trộm mãn hạn tù, anh ta lần theo dấu vết của Ann - người yêu cũ để lấy lại chỗ kim cương của 2 người. Nhưng mọi chuyện không đơn giản khi anh đến thị trấn Banshee thuộc Pennylvania. Thị trấn nhỏ này đang nằm dưới quyền kiểm soát của một tay trùm bạo lực, các hành động ngầm diễn ra khắp nơi. Trước tình hình đó, phó cảnh sát trưởng tìm kiếm người thay thế cảnh sát trưởng vừa bị giết. Tình cờ tại một quán rượu gã trộm mới ra tù lại có được phù hiệu của cảnh sát trưởng trong tay. Chứng kiến cảnh đối đầu giữa cảnh sát trưởng cùng bọn tội phạm trong quán rượu, khi viên cảnh sát ngã xuống trước mặt mình, gã trộm đã nghĩ ra một ý tưởng rất táo bạo, đó chính là đóng giả vai cảnh sát trưởng Lucas Hood, và từ đây, nhiều diễn biến nối tiếp nhau xảy ra...

    Mã:
    [PHP]General
    Complete name               : Banshee.S01E01.Pilot.1080p.DTS-HD.MA.5.1.AVC.REMUX-FraMeSToR_Vietsub.mkv
    Format                      : Matroska
    Format version              : Version 4
    File size                   : 11.9 GiB
    Duration                    : 59 min 34 s
    Overall bit rate mode       : Variable
    Overall bit rate            : 28.6 Mb/s
    Movie name                  : Banshee.S01E01.Pilot.1080p.DTS-HD.MA.5.1.AVC.REMUX-FraMeSToR
    Encoded date                : UTC 2021-09-19 05:03:52
    Writing application         : mkvmerge v22.0.0 ('At The End Of The World') 64-bit
    Writing library             : libebml v1.3.9 + libmatroska v1.5.2
    
    Video
    ID                          : 1
    Format                      : AVC
    Format/Info                 : Advanced Video Codec
    Format profile              : [email protected]
    Format settings             : CABAC / 2 Ref Frames
    Format settings, CABAC      : Yes
    Format settings, Reference  : 2 frames
    Codec ID                    : V_MPEG4/ISO/AVC
    Duration                    : 59 min 33 s
    Bit rate mode               : Variable
    Bit rate                    : 26.4 Mb/s
    Width                       : 1 920 pixels
    Height                      : 1 080 pixels
    Display aspect ratio        : 16:9
    Frame rate mode             : Constant
    Frame rate                  : 23.976 (24000/1001) FPS
    Color space                 : YUV
    Chroma subsampling          : 4:2:0
    Bit depth                   : 8 bits
    Scan type                   : Progressive
    Bits/(Pixel*Frame)          : 0.531
    Stream size                 : 11.0 GiB (92%)
    Title                       : FraMeSToR MPEG-4 AVC Video / 26410 kbps / 1080p / 23.976 fps / 16:9 / High Profile 4.1
    Default                     : Yes
    Forced                      : No
    
    Audio #1
    ID                          : 2
    Format                      : DTS XLL
    Format/Info                 : Digital Theater Systems
    Commercial name             : DTS-HD Master Audio
    Codec ID                    : A_DTS
    Duration                    : 59 min 34 s
    Bit rate mode               : Variable
    Bit rate                    : 1 918 kb/s
    Channel(s)                  : 6 channels
    Channel layout              : C L R Ls Rs LFE
    Sampling rate               : 48.0 kHz
    Frame rate                  : 93.750 FPS (512 SPF)
    Bit depth                   : 16 bits
    Compression mode            : Lossless
    Stream size                 : 817 MiB (7%)
    Title                       : DTS-HD MA 5.1 / 48 kHz / 1918 kbps / 16-bit (DTS Core: 5.1 / 48 kHz / 1509 kbps / 16-bit)
    Language                    : English
    Default                     : Yes
    Forced                      : No
    
    Audio #2
    ID                          : 3
    Format                      : DTS
    Format/Info                 : Digital Theater Systems
    Codec ID                    : A_DTS
    Duration                    : 59 min 33 s
    Bit rate mode               : Constant
    Bit rate                    : 255 kb/s
    Channel(s)                  : 2 channels
    Channel layout              : Lt Rt
    Sampling rate               : 48.0 kHz
    Frame rate                  : 93.750 FPS (512 SPF)
    Bit depth                   : 24 bits
    Compression mode            : Lossy
    Stream size                 : 109 MiB (1%)
    Title                       : Commentary
    Language                    : English
    Default                     : No
    Forced                      : No
    
    Text #1
    ID                          : 4
    Format                      : PGS
    Muxing mode                 : zlib
    Codec ID                    : S_HDMV/PGS
    Codec ID/Info               : Picture based subtitle format used on BDs/HD-DVDs
    Duration                    : 6 s 549 ms
    Bit rate                    : 18.9 kb/s
    Count of elements           : 4
    Stream size                 : 15.1 KiB (0%)
    Title                       : English (forced)
    Language                    : English
    Default                     : No
    Forced                      : Yes
    
    Text #2
    ID                          : 5
    Format                      : PGS
    Muxing mode                 : zlib
    Codec ID                    : S_HDMV/PGS
    Codec ID/Info               : Picture based subtitle format used on BDs/HD-DVDs
    Duration                    : 57 min 48 s
    Bit rate                    : 26.5 kb/s
    Count of elements           : 1302
    Stream size                 : 11.0 MiB (0%)
    Title                       : English SDH
    Language                    : English
    Default                     : No
    Forced                      : No
    
    Text #3
    ID                          : 6
    Format                      : PGS
    Muxing mode                 : zlib
    Codec ID                    : S_HDMV/PGS
    Codec ID/Info               : Picture based subtitle format used on BDs/HD-DVDs
    Duration                    : 55 min 25 s
    Bit rate                    : 20.1 kb/s
    Count of elements           : 1144
    Stream size                 : 7.98 MiB (0%)
    Language                    : French
    Default                     : No
    Forced                      : No
    
    Text #4
    ID                          : 7
    Format                      : PGS
    Muxing mode                 : zlib
    Codec ID                    : S_HDMV/PGS
    Codec ID/Info               : Picture based subtitle format used on BDs/HD-DVDs
    Duration                    : 55 min 25 s
    Bit rate                    : 23.1 kb/s
    Count of elements           : 1026
    Stream size                 : 9.18 MiB (0%)
    Language                    : German
    Default                     : No
    Forced                      : No
    
    Text #5
    ID                          : 8
    Format                      : UTF-8
    Codec ID                    : S_TEXT/UTF8
    Codec ID/Info               : UTF-8 Plain Text
    Duration                    : 56 min 53 s
    Bit rate                    : 57 b/s
    Count of elements           : 660
    Stream size                 : 24.2 KiB (0%)
    Title                       : Vietnam
    Language                    : Vietnamese
    Default                     : Yes
    Forced                      : No
    
    Menu
    00:00:00.000                : en:00:00:00.000
    00:07:38.249                : en:00:07:38.249
    00:14:28.701                : en:00:14:28.701
    00:23:52.598                : en:00:23:52.598
    00:33:14.075                : en:00:33:14.075
    00:40:05.111                : en:00:40:05.111
    00:48:01.796                : en:00:48:01.796
    00:58:02.979                : en:00:58:02.979
    
    [/PHP]
    

    SCREENSHOT
    [​IMG]

    DOWNLOAD
     
    suonxao, vahiep2005, jayw and 90 others like this.
  6. tremocoivo

    tremocoivo Uploader

    Tham gia ngày:
    25/2/10
    Bài viết:
    3,947
    Đã được cảm ơn:
    106,312
    Giới tính:
    Nam
    Đường Dây Tội Phạm (2002) - Trọn Bộ 5 Phần
    The Wire 2002 Complete Series BluRay REMUX 1080p AVC DTS-HDMA 5.1-MrO {Sub Việt Mux Sẵn}

    [​IMG] [​IMG]
    https://www.imdb.com/title/tt0306414

    Tác phẩm này đã được tạp chí điện ảnh lớn nhất thế giới Empire đưa vào danh sách bình chọn Top 50 phim truyền hình hay nhất mọi thời đại và từng là TV series ăn khách nhất của đài HBO. Mỗi mùa phim lại tập trung vào một khía cạnh trong thành phố Baltimore như buôn bán ma túy bất hợp pháp, hệ thống cảng biển, thành phố, bộ máy quan liêu, hệ thống trường học và các phương tiện truyền thông đại chúng.

    Mã:
    General
    Unique ID                   : 45065441708673870480167857241419785909 (0x21E749D23F719D45372BC99A200DA6B5)
    Complete name               : The.Wire.S01E01.The.Target.BluRay.Remux.1080p.AVC.DTS-HD.MA.5.1-MrO.mkv
    Format                      : Matroska
    Format version              : Version 4
    File size                   : 11.1 GiB
    Duration                    : 1 h 2 min
    Overall bit rate mode       : Variable
    Overall bit rate            : 25.5 Mb/s
    Encoded date                : UTC 2020-09-03 18:03:00
    Writing application         : mkvmerge v49.0.0 ('Sick Of Losing Soulmates') 64-bit
    Writing library             : libebml v1.4.0 + libmatroska v1.6.1
    
    Video
    ID                          : 2
    Format                      : AVC
    Format/Info                 : Advanced Video Codec
    Format profile              : [email protected]
    Format settings             : CABAC / 4 Ref Frames
    Format settings, CABAC      : Yes
    Format settings, Reference  : 4 frames
    Codec ID                    : V_MPEG4/ISO/AVC
    Duration                    : 1 h 2 min
    Bit rate mode               : Variable
    Bit rate                    : 21.9 Mb/s
    Maximum bit rate            : 39.0 Mb/s
    Width                       : 1 920 pixels
    Height                      : 1 080 pixels
    Display aspect ratio        : 16:9
    Frame rate mode             : Constant
    Frame rate                  : 23.976 (24000/1001) FPS
    Color space                 : YUV
    Chroma subsampling          : 4:2:0
    Bit depth                   : 8 bits
    Scan type                   : Progressive
    Bits/(Pixel*Frame)          : 0.440
    Stream size                 : 9.50 GiB (86%)
    Title                       : MPEG-4 AVC Video / 21998 kbps / 1080p / 23,976 fps / 16:9 / High Profile 4.1
    Default                     : Yes
    Forced                      : No
    
    Audio
    ID                          : 1
    Format                      : DTS XLL
    Format/Info                 : Digital Theater Systems
    Commercial name             : DTS-HD Master Audio
    Codec ID                    : A_DTS
    Duration                    : 1 h 2 min
    Bit rate mode               : Variable
    Bit rate                    : 3 442 kb/s
    Channel(s)                  : 6 channels
    Channel layout              : C L R Ls Rs LFE
    Sampling rate               : 48.0 kHz
    Frame rate                  : 93.750 FPS (512 SPF)
    Bit depth                   : 24 bits
    Compression mode            : Lossless
    Stream size                 : 1.49 GiB (14%)
    Title                       : DTS-HD Master Audio / English / 5.1 / 48 kHz / 3442 kbps / 24-bit
    Language                    : English
    Default                     : Yes
    Forced                      : No
    
    Text #1
    ID                          : 3
    Format                      : PGS
    Muxing mode                 : zlib
    Codec ID                    : S_HDMV/PGS
    Codec ID/Info               : Picture based subtitle format used on BDs/HD-DVDs
    Duration                    : 1 h 0 min
    Bit rate                    : 48.1 kb/s
    Count of elements           : 1744
    Stream size                 : 20.7 MiB (0%)
    Language                    : English
    Default                     : No
    Forced                      : No
    
    Text #2
    ID                          : 4
    Format                      : PGS
    Muxing mode                 : zlib
    Codec ID                    : S_HDMV/PGS
    Codec ID/Info               : Picture based subtitle format used on BDs/HD-DVDs
    Duration                    : 59 min 52 s
    Bit rate                    : 44.6 kb/s
    Count of elements           : 1644
    Stream size                 : 19.1 MiB (0%)
    Language                    : French
    Default                     : No
    Forced                      : No
    
    Text #3
    ID                          : 5
    Format                      : PGS
    Muxing mode                 : zlib
    Codec ID                    : S_HDMV/PGS
    Codec ID/Info               : Picture based subtitle format used on BDs/HD-DVDs
    Duration                    : 59 min 51 s
    Bit rate                    : 45.6 kb/s
    Count of elements           : 1786
    Stream size                 : 19.5 MiB (0%)
    Language                    : Spanish
    Default                     : No
    Forced                      : No
    
    Text #4
    ID                          : 6
    Format                      : PGS
    Muxing mode                 : zlib
    Codec ID                    : S_HDMV/PGS
    Codec ID/Info               : Picture based subtitle format used on BDs/HD-DVDs
    Duration                    : 59 min 52 s
    Bit rate                    : 52.2 kb/s
    Count of elements           : 1720
    Stream size                 : 22.4 MiB (0%)
    Language                    : German
    Default                     : No
    Forced                      : No
    
    Text #5
    ID                          : 7
    Format                      : PGS
    Muxing mode                 : zlib
    Codec ID                    : S_HDMV/PGS
    Codec ID/Info               : Picture based subtitle format used on BDs/HD-DVDs
    Duration                    : 59 min 52 s
    Bit rate                    : 44.5 kb/s
    Count of elements           : 1616
    Stream size                 : 19.0 MiB (0%)
    Language                    : Dutch
    Default                     : No
    Forced                      : No
    
    Text #6
    ID                          : 8
    Format                      : PGS
    Muxing mode                 : zlib
    Codec ID                    : S_HDMV/PGS
    Codec ID/Info               : Picture based subtitle format used on BDs/HD-DVDs
    Duration                    : 59 min 52 s
    Bit rate                    : 43.4 kb/s
    Count of elements           : 1638
    Stream size                 : 18.6 MiB (0%)
    Language                    : Danish
    Default                     : No
    Forced                      : No
    
    Text #7
    ID                          : 9
    Format                      : PGS
    Muxing mode                 : zlib
    Codec ID                    : S_HDMV/PGS
    Codec ID/Info               : Picture based subtitle format used on BDs/HD-DVDs
    Duration                    : 59 min 52 s
    Bit rate                    : 41.8 kb/s
    Count of elements           : 1636
    Stream size                 : 17.9 MiB (0%)
    Language                    : Finnish
    Default                     : No
    Forced                      : No
    
    Text #8
    ID                          : 10
    Format                      : PGS
    Muxing mode                 : zlib
    Codec ID                    : S_HDMV/PGS
    Codec ID/Info               : Picture based subtitle format used on BDs/HD-DVDs
    Duration                    : 59 min 52 s
    Bit rate                    : 42.3 kb/s
    Count of elements           : 1638
    Stream size                 : 18.1 MiB (0%)
    Language                    : Norwegian
    Default                     : No
    Forced                      : No
    
    Text #9
    ID                          : 11
    Format                      : PGS
    Muxing mode                 : zlib
    Codec ID                    : S_HDMV/PGS
    Codec ID/Info               : Picture based subtitle format used on BDs/HD-DVDs
    Duration                    : 59 min 52 s
    Bit rate                    : 42.7 kb/s
    Count of elements           : 1640
    Stream size                 : 18.3 MiB (0%)
    Language                    : Swedish
    Default                     : No
    Forced                      : No
    
    Text #10
    ID                          : 12
    Format                      : PGS
    Muxing mode                 : zlib
    Codec ID                    : S_HDMV/PGS
    Codec ID/Info               : Picture based subtitle format used on BDs/HD-DVDs
    Duration                    : 1 h 0 min
    Bit rate                    : 46.5 kb/s
    Count of elements           : 1766
    Stream size                 : 20.1 MiB (0%)
    Language                    : Vietnamese
    Default                     : Yes
    Forced                      : No
    
    Menu
    00:00:00.000                : en:Chapter 01
    00:04:27.934                : en:Chapter 02
    00:12:45.807                : en:Chapter 03
    00:21:06.307                : en:Chapter 04
    00:30:24.281                : en:Chapter 05
    00:39:42.380                : en:Chapter 06
    00:48:03.798                : en:Chapter 07
    00:55:16.647                : en:Chapter 08
    01:00:58.071                : en:Chapter 09
    
    


    SCREENSHOT
    [​IMG]
    DOWNLOAD
     
  7. tremocoivo

    tremocoivo Uploader

    Tham gia ngày:
    25/2/10
    Bài viết:
    3,947
    Đã được cảm ơn:
    106,312
    Giới tính:
    Nam
    Hồ Sơ Tuyệt Mật (1993 - 2018)
    The X-Files Complete Series 1080p BluRay REMUX AVC DTS-HD MA 5.1-EPSiLON {Sub Việt Mux Sẵn}

    [​IMG] [​IMG]
    https://www.imdb.com/title/tt0106179

    Hồ sơ tuyệt mật (tên gốc tiếng Anh: The X-files) là một bộ phim truyền hình dài tập khoa học viễn tưởng nổi tiếng của Hoa Kỳ. Bộ phim của Chris Carter này được trình chiếu bởi FOX (Hoa Kỳ) từ ngày 10 tháng 9 năm 1992 và kết thúc ngày 19 tháng 5 năm 2002. Bộ phim mang tính chất của thời kỳ thập niên 1990, khi người dân không mấy tin tưởng vào chính phủ trong khi rất tin vào việc tồn tại sự sống ngoài Trái Đất. Phim đã từng được trình chiếu trên kênh truyền hình VTV3 và VTV6 của Việt Nam.

    Trong bộ phim, đặc vụ FBI Fox Mulder (David Duchovny) do muốn tìm lại người em gái mất tích của mình, đã dấn thân vào điều tra tại "X-files" với niềm tin rằng em gái của anh đã bị bắt cóc bởi người ngoài Trái Đất. Mulder rất tin tưởng vào sự tồn tại của người ngoài Trái Đất trong khi người tham gia điều tra cùng Fox Mulder là đặc vụ Dana Scully (Gillian Anderson). Ban đầu, Scully không tin vào những điều mà Fox Mulder nói, nhưng với những bằng chứng cụ thể cùng với những vụ án thực tế cô và Mulder trải qua, dần dần Scully đã tin vào những hiện tượng kỳ bí.

    Tuy nhiên, tới cuối phim thì nhân vật Fox Mulder xuất hiện ít hơn và có thêm sự xuất hiện của một nhân vật chính khác là đặc vụ John Doggett (Robert Patrick). Tới phiên mình, John Doggett lại nghi ngờ tính xác thực của các vụ án trong X-files và lúc này, chính đặc vụ Scully là người đã khiến cho John Doggett dần dần tin vào X-files.

    Bộ phim The X-files là bộ phim truyền hình dài tập nhất về đề tài khoa học viễn tưởng được biết đến tại Hoa Kỳ và được tạp chí TV Guide bình chọn ở vị trí thứ 37 trong các bộ phim hay nhất mọi thời đại.

    Mã:
    General
    Complete name  : The.X-Files.S01E01.Pilot.1080p.BluRay.REMUX.AVC.DTS-HD.MA.5.1-EPSiLON.mkv
    Format  : Matroska
    Format version  : Version 4
    File size  : 9.69 GiB
    Duration  : 48 min 14 s
    Overall bit rate mode  : Variable
    Overall bit rate  : 28.8 Mb/s
    Encoded date  : UTC 2020-05-12 15:43:07
    Writing application  : mkvmerge v43.0.0 ('The Quartermaster') 64-bit
    Writing library  : libebml v1.3.10 + libmatroska v1.5.2
    
    Video
    ID  : 1
    Format  : AVC
    Format/Info  : Advanced Video Codec
    Format profile  : [email protected]
    Format settings  : CABAC / 4 Ref Frames
    Format settings, CABAC  : Yes
    Format settings, Reference  : 4 frames
    Codec ID  : V_MPEG4/ISO/AVC
    Duration  : 48 min 14 s
    Bit rate mode  : Variable
    Bit rate  : 24.7 Mb/s
    Maximum bit rate  : 38.0 Mb/s
    Width  : 1 920 pixels
    Height  : 1 080 pixels
    Display aspect ratio  : 16:9
    Frame rate mode  : Constant
    Frame rate  : 23.976 (24000/1001) FPS
    Color space  : YUV
    Chroma subsampling  : 4:2:0
    Bit depth  : 8 bits
    Scan type  : Progressive
    Bits/(Pixel*Frame)  : 0.497
    Stream size  : 8.33 GiB (86%)
    Title  : MPEG-4 AVC Video / 24995 kbps / 1080p / 23.976 fps / 16:9 / High Profile 4.1
    Default  : Yes
    Forced  : No
    
    Audio
    ID  : 2
    Format  : DTS XLL
    Format/Info  : Digital Theater Systems
    Commercial name  : DTS-HD Master Audio
    Codec ID  : A_DTS
    Duration  : 48 min 14 s
    Bit rate mode  : Variable
    Bit rate  : 3 973 kb/s
    Channel(s)  : 6 channels
    Channel layout  : C L R Ls Rs LFE
    Sampling rate  : 48.0 kHz
    Frame rate  : 93.750 FPS (512 SPF)
    Bit depth  : 24 bits
    Compression mode  : Lossless
    Stream size  : 1.34 GiB (14%)
    Title  : DTS-HD Master Audio / 5.1 / 48 kHz / 3973 kbps / 24-bit
    Language  : English
    Default  : Yes
    Forced  : No
    
    Text #1
    ID  : 3
    Format  : PGS
    Muxing mode  : zlib
    Codec ID  : S_HDMV/PGS
    Codec ID/Info  : Picture based subtitle format used on BDs/HD-DVDs
    Duration  : 47 min 44 s
    Bit rate  : 38.2 kb/s
    Count of elements  : 1068
    Stream size  : 13.1 MiB (0%)
    Title  : SDH
    Language  : English
    Default  : No
    Forced  : No
    
    Text #2
    ID  : 4
    Format  : PGS
    Muxing mode  : zlib
    Codec ID  : S_HDMV/PGS
    Codec ID/Info  : Picture based subtitle format used on BDs/HD-DVDs
    Duration  : 48 min 0 s
    Bit rate  : 23.5 kb/s
    Count of elements  : 988
    Stream size  : 8.06 MiB (0%)
    Language  : Japanese
    Default  : No
    Forced  : No
    
    Text #3
    ID  : 5
    Format  : PGS
    Muxing mode  : zlib
    Codec ID  : S_HDMV/PGS
    Codec ID/Info  : Picture based subtitle format used on BDs/HD-DVDs
    Duration  : 48 min 6 s
    Bit rate  : 38.6 kb/s
    Count of elements  : 1038
    Stream size  : 13.3 MiB (0%)
    Language  : Spanish
    Default  : No
    Forced  : No
    
    Text #4
    ID  : 6
    Format  : PGS
    Muxing mode  : zlib
    Codec ID  : S_HDMV/PGS
    Codec ID/Info  : Picture based subtitle format used on BDs/HD-DVDs
    Duration  : 47 min 57 s
    Bit rate  : 36.4 kb/s
    Count of elements  : 1042
    Stream size  : 12.5 MiB (0%)
    Language  : French
    Default  : No
    Forced  : No
    
    Text #5
    ID  : 7
    Format  : PGS
    Muxing mode  : zlib
    Codec ID  : S_HDMV/PGS
    Codec ID/Info  : Picture based subtitle format used on BDs/HD-DVDs
    Duration  : 47 min 57 s
    Bit rate  : 40.4 kb/s
    Count of elements  : 1102
    Stream size  : 13.9 MiB (0%)
    Language  : German
    Default  : No
    Forced  : No
    
    Text #6
    ID  : 8
    Format  : UTF-8
    Codec ID  : S_TEXT/UTF8
    Codec ID/Info  : UTF-8 Plain Text
    Duration  : 47 min 35 s
    Bit rate  : 73 b/s
    Count of elements  : 489
    Stream size  : 25.5 KiB (0%)
    Title  : Vietnamese subtitles
    Language  : Vietnamese
    Default  : Yes
    Forced  : No
    
    Menu
    00:00:00.000  : en:Chapter 1
    00:02:17.262  : en:Chapter 2
    00:11:36.321  : en:Chapter 3
    00:14:44.801  : en:Chapter 4
    00:17:05.816  : en:Chapter 5
    00:20:18.551  : en:Chapter 6
    00:23:24.320  : en:Chapter 7
    00:30:35.709  : en:Chapter 8
    00:34:33.905  : en:Chapter 9
    00:38:44.822  : en:Chapter 10
    00:43:43.454  : en:Chapter 11
    00:47:45.237  : en:Chapter 12
    

    SCREENSHOT
    [​IMG]

    DOWNLOAD TRỌN BỘ 11 SEASON
     
  8. tremocoivo

    tremocoivo Uploader

    Tham gia ngày:
    25/2/10
    Bài viết:
    3,947
    Đã được cảm ơn:
    106,312
    Giới tính:
    Nam
    Thị Trấn Smallville (2001 - 2011)
    Smallville 2001 1080p DTS-HD MA 5.1 AVC REMUX {Sub Việt Mux Sẵn}

    [​IMG]
    https://www.imdb.com/title/tt0279600

    Thị trấn Smallville là một bộ phim truyền hình do Hoa Kỳ sản xuất với nội dung chính kể về cuộc sống của Clark Kent (Siêu nhân) thời niên thiếu. Câu chuyện xoay quanh Clark Kent, gia đình và bạn bè anh trong việc dần khám phá ra bí mật rằng mình có nguồn gốc lạ thường và là người đến từ một hành tinh khác.
    Mỗi tập phim Smallville hé lộ từng phần về cuộc đời của Clark Kent (Tom Welling), bắt đầu từ khi anh còn là một thiếu niên sống ở thị trấn nhỏ bé Smallville, Kansas, và từng bước các tập phim theo chân anh vào trường trung học, đại học, và những khởi đầu cả mình ở Daily Planet (Nhật Báo Hành Tinh) trước khi anh chính thức mang nhân dạng "Siêu Nhân". Từng bước một, Clark Kent phát hiện ra những khả năng tiềm ẩn của mình mà trước đây anh chưa bao giờ biết đến (nhìn xuyên thấu bằng tia X, tai siêu thính...), cùng với đó là truy tìm nguồn gốc ngoài trái đất của mình và khám phá số phận thực sự của mình.

    Mã:
    General
    Filename.......: Smallville.S01E01.Pilot.1080p.DTS-HD.MA.5.1.AVC.REMUX-FraMeSToR_Vietsub
    Container......: Matroska
    Duration.......: 45 min 29 s 899 ms
    Size...........: 7.35 GiB
    
    Video
    Codec..........:  [email protected] 8 bits
    Type...........: Progressive
    Resolution.....: 1920x1080
    Aspect ratio...: 1.778:1
    Bit rate.......: 20.8 Mb/s
    Frame rate.....: 23.976 (24000/1001) FPS
    
    Audio
    Format.........: DTS-HD Master Audio  
    Channels.......: 6 channels
    Bit rate.......: 2 321 kb/s
    Language.......: English DTS-HD MA 5.1
    
    Subtitles......: PGS English English (SDH)
    Subtitles......: PGS Dutch Dutch
    Subtitles......: PGS French French
    Subtitles......: UTF-8 Vietnamese Vietnam
    
    

    SCREENSHOT
    [​IMG]

    DOWNLOAD TRỌN BỘ 10 SEASON (Tất cả đã được Mux sẵn sub Việt)
     
    Rei527, hungvu9020, miketv77 and 37 others like this.
  9. tremocoivo

    tremocoivo Uploader

    Tham gia ngày:
    25/2/10
    Bài viết:
    3,947
    Đã được cảm ơn:
    106,312
    Giới tính:
    Nam
    Bộ Ba Phép Thuật (1998) - Trọn Bộ 8 Phần
    Charmed 1998 Complete Series 1080p BluRay REMUX AVC FLAC 2.0
    {Sub Việt Mux Sẵn}

    [​IMG]
    https://www.imdb.com/title/tt0158552

    Phép Thuật (Charmed) là cái tên thường được thế hệ khán giả 8x, thậm chí là cả 9x đời đầu nhắc tới khi nhớ về tuổi thơ của mình. Những năm đầu 2000, khi làn sóng phim Trung, phim Hàn vừa mới đổ bộ màn ảnh nhỏ Việt và khiến bao thanh niên thời đó chết mê chết mệt thì bộ phim Âu Mỹ Phép Thuật vẫn có một chỗ đứng nhất định, thậm chí còn từng làm mưa làm gió trên sóng VTV3 một thời. Ba chị em phù thủy Prue (Shannen Doherty), Piper (Holly Marie), Phoebe (Alyssa Milano)và sau này có cả Paige (Rose McGowan) đã khiến bao khán giả say đắm vì vẻ xinh đẹp, cá tính và tài phép của họ.

    Phép Thuật là bộ phim kể về ba chị em phù thủy nhà Halliwell có năng lực hùng mạnh, khi họ hợp lực lại với nhau sẽ tạo ra bộ 3 Phép Thuật đầy quyền năng khiến cho đám phù thủy hắc ám, ác quỷ phải dè chừng. Sau cái chết của Prue ở cuối phần 3, cô em gái cùng mẹ khác cha xuất hiện và tiếp tục vị trí của người chị Prue trong bộ 3 Phép Thuật.

    Mã:
    General
    Complete name               : Charmed.S01E01.Something.Wicca.This.Way.Comes.REPACK.1080p.BluRay.REMUX.AVC.FLAC.2.0-EPSiLON_Vietsub.mkv
    Format                      : Matroska
    Format version              : Version 4
    File size                   : 9.92 GiB
    Duration                    : 43 min 29 s
    Overall bit rate mode       : Variable
    Overall bit rate            : 32.6 Mb/s
    Movie name                  : Charmed - S01E01 - Something Wicca This Way Comes
    Track name/Position         : 1
    Track name/Total            : 22
    Encoded date                : UTC 2021-07-20 16:43:58
    Writing application         : mkvmerge v57.0.0 ('Till The End') 64-bit
    Writing library             : libebml v1.4.2 + libmatroska v1.6.4
    IMDB                        : tt0539431
    TMDB                        : tv/1981
    TVDB                        : 70626
    
    Video
    ID                          : 1
    Format                      : AVC
    Format/Info                 : Advanced Video Codec
    Format profile              : [email protected]
    Format settings             : CABAC / 3 Ref Frames
    Format settings, CABAC      : Yes
    Format settings, Reference  : 3 frames
    Codec ID                    : V_MPEG4/ISO/AVC
    Duration                    : 43 min 29 s
    Bit rate mode               : Variable
    Bit rate                    : 32.0 Mb/s
    Maximum bit rate            : 38.0 Mb/s
    Width                       : 1 920 pixels
    Height                      : 1 080 pixels
    Display aspect ratio        : 16:9
    Frame rate mode             : Constant
    Frame rate                  : 23.976 (24000/1001) FPS
    Color space                 : YUV
    Chroma subsampling          : 4:2:0
    Bit depth                   : 8 bits
    Scan type                   : Progressive
    Bits/(Pixel*Frame)          : 0.643
    Stream size                 : 9.72 GiB (98%)
    Title                       : MPEG-4 AVC Video / 31981 kbps / 1080p / 23.976 fps / 16:9 / High Profile 4.1
    Language                    : English
    Default                     : Yes
    Forced                      : No
    Color range                 : Limited
    Color primaries             : BT.709
    Transfer characteristics    : BT.709
    Matrix coefficients         : BT.709
    
    Audio
    ID                          : 2
    Format                      : FLAC
    Format/Info                 : Free Lossless Audio Codec
    Codec ID                    : A_FLAC
    Duration                    : 43 min 29 s
    Bit rate mode               : Variable
    Bit rate                    : 589 kb/s
    Channel(s)                  : 2 channels
    Channel layout              : L R
    Sampling rate               : 48.0 kHz
    Frame rate                  : 11.719 FPS (4096 SPF)
    Bit depth                   : 16 bits
    Compression mode            : Lossless
    Stream size                 : 183 MiB (2%)
    Title                       : FLAC Audio / 2.0 / 48 kHz / 589 kbps / 16-bit
    Writing library             : libFLAC 1.3.3 (UTC 2019-08-04)
    Language                    : English
    Default                     : Yes
    Forced                      : No
    
    Text #1
    ID                          : 3
    Format                      : PGS
    Muxing mode                 : zlib
    Codec ID                    : S_HDMV/PGS
    Codec ID/Info               : Picture based subtitle format used on BDs/HD-DVDs
    Duration                    : 42 min 12 s
    Bit rate                    : 42.1 kb/s
    Count of elements           : 1220
    Stream size                 : 12.7 MiB (0%)
    Language                    : English
    Default                     : No
    Forced                      : No
    
    Text #2
    ID                          : 4
    Format                      : PGS
    Muxing mode                 : zlib
    Codec ID                    : S_HDMV/PGS
    Codec ID/Info               : Picture based subtitle format used on BDs/HD-DVDs
    Duration                    : 42 min 17 s
    Bit rate                    : 42.6 kb/s
    Count of elements           : 1288
    Stream size                 : 12.9 MiB (0%)
    Title                       : SDH
    Language                    : English
    Default                     : No
    Forced                      : No
    
    Text #3
    ID                          : 5
    Format                      : PGS
    Muxing mode                 : zlib
    Codec ID                    : S_HDMV/PGS
    Codec ID/Info               : Picture based subtitle format used on BDs/HD-DVDs
    Duration                    : 42 min 12 s
    Bit rate                    : 38.6 kb/s
    Count of elements           : 1196
    Stream size                 : 11.7 MiB (0%)
    Language                    : French
    Default                     : No
    Forced                      : No
    
    Text #4
    ID                          : 6
    Format                      : PGS
    Muxing mode                 : zlib
    Codec ID                    : S_HDMV/PGS
    Codec ID/Info               : Picture based subtitle format used on BDs/HD-DVDs
    Duration                    : 42 min 12 s
    Bit rate                    : 45.8 kb/s
    Count of elements           : 1230
    Stream size                 : 13.8 MiB (0%)
    Language                    : German
    Default                     : No
    Forced                      : No
    
    Text #5
    ID                          : 7
    Format                      : UTF-8
    Codec ID                    : S_TEXT/UTF8
    Codec ID/Info               : UTF-8 Plain Text
    Duration                    : 42 min 33 s
    Bit rate                    : 100 b/s
    Count of elements           : 623
    Stream size                 : 31.5 KiB (0%)
    Language                    : Vietnamese
    Default                     : Yes
    Forced                      : No
    
    Menu
    00:00:00.000                : Chapter 1
    00:04:41.823                : Chapter 2
    00:18:49.045                : Chapter 3
    00:26:40.390                : Chapter 4
    00:36:41.574                : Chapter 5
    00:42:50.735                : Chapter 6
    
    

    SCREENSHOT
    [​IMG]

    DOWNLOAD
     
    bonlv90, Rei527, phuonght and 40 others like this.
  10. tremocoivo

    tremocoivo Uploader

    Tham gia ngày:
    25/2/10
    Bài viết:
    3,947
    Đã được cảm ơn:
    106,312
    Giới tính:
    Nam
    Gia Đình Soprano (1999 - 2007) - Trọn Bộ 6 Phần
    The Sopranos Complete Series 1080p Blu-ray REMUX AVC DTS-HD MA 5.1 {Sub Việt Mux Sẵn}

    [​IMG] [​IMG]
    https://www.imdb.com/title/tt0141842

    Nếu bạn là một trùm mafia, bạn sẽ làm gì khi con gái có bạn trai đầu tiên và chuyển ra ngoài thuê nhà sống tự lập? Bạn sẽ làm gì khi con trai bạn trở nên bất ổn về tâm sinh lý khi vào tuổi vị thành niên? Và bạn sẽ làm gì khi vợ bạn yêu cầu ly thân và không cho sống chung nhà?

    Đó là những vấn đề rất đời thường, không thể giải quyết bằng bạo lực mà ông trùm mafia gốc Ý, Tony Soprano (diễn viên James Gandolfini thủ vai) luôn phải đối mặt trong “The Sopranos”.

    Nét độc đáo nhất của “The Sopranos” chính là cách đặt vấn đề của các nhà làm phim. Hầu hết chúng ta gắn thế giới tội phạm và mafia với sự bí ẩn, tội ác và sợ hãi. Nhưng đạo diễn người Mỹ gốc Ý David Chase (đồng thời cũng là biên kịch, nhà sản xuất của phim), người sinh ra và lớn lên trong thế giới tội phạm lại không nghĩ vậy. Với Chase, tội phạm vẫn là con người bình thường. Thậm chí đó có thể là người hàng xóm của chính bạn và cũng có rắc rối với những vấn đề rất đời thường. Từ cách đặt vấn đề này, bộ phim đã cung cấp một góc nhìn rất khác về thế giới tội phạm, gần gũi và nhân bản hơn dù trong phim vẫn có tội ác, súng ống, bạo lực và cả chết chóc. Cách nhìn này của Chase, dù đã gây ra nhiều tranh cãi nhưng vẫn kéo khán giả ở hàng chục quốc gia trên thế giới ngồi trước màn hình ti-vi để chờ xem "The Sopranos". Trang web IMDb cũng đã chấm 9,5/10 điểm cho phim, điểm số cao nhất mà một bộ phim truyền hình từng nhận được trên trang web này.

    Mã:
    General
    Complete name  : The Sopranos S01E01 1080p Blu-ray Remux AVC DTS-HD MA 5.1.mkv
    Format  : Matroska
    Format version  : Version 4
    File size  : 14.0 GiB
    Duration  : 1 h 0 min
    Overall bit rate mode  : Variable
    Overall bit rate  : 33.4 Mb/s
    Encoded date  : UTC 2020-05-19 08:57:27
    Writing application  : mkvmerge v45.0.0 ('Heaven in Pennies') 64-bit
    Writing library  : libebml v1.3.10 + libmatroska v1.5.2
    
    Video
    ID  : 1
    Format  : AVC
    Format/Info  : Advanced Video Codec
    Format profile  : [email protected]
    Format settings  : CABAC / 4 Ref Frames
    Format settings, CABAC  : Yes
    Format settings, Reference  : 4 frames
    Codec ID  : V_MPEG4/ISO/AVC
    Duration  : 1 h 0 min
    Bit rate mode  : Variable
    Bit rate  : 31.5 Mb/s
    Maximum bit rate  : 37.0 Mb/s
    Width  : 1 920 pixels
    Height  : 1 080 pixels
    Display aspect ratio  : 16:9
    Frame rate mode  : Constant
    Frame rate  : 23.976 (24000/1001) FPS
    Standard  : NTSC
    Color space  : YUV
    Chroma subsampling  : 4:2:0
    Bit depth  : 8 bits
    Scan type  : Progressive
    Bits/(Pixel*Frame)  : 0.633
    Stream size  : 13.2 GiB (94%)
    Default  : Yes
    Forced  : No
    Color range  : Limited
    Color primaries  : BT.709
    Transfer characteristics  : BT.709
    Matrix coefficients  : BT.709
    
    Audio
    ID  : 2
    Format  : DTS XLL
    Format/Info  : Digital Theater Systems
    Commercial name  : DTS-HD Master Audio
    Codec ID  : A_DTS
    Duration  : 1 h 0 min
    Bit rate mode  : Variable
    Bit rate  : 1 878 kb/s
    Channel(s)  : 6 channels
    Channel layout  : C L R Ls Rs LFE
    Sampling rate  : 48.0 kHz
    Frame rate  : 93.750 FPS (512 SPF)
    Bit depth  : 16 bits
    Compression mode  : Lossless
    Stream size  : 806 MiB (6%)
    Default  : Yes
    Forced  : No
    
    Text #1
    ID  : 3
    Format  : PGS
    Muxing mode  : zlib
    Codec ID  : S_HDMV/PGS
    Codec ID/Info  : Picture based subtitle format used on BDs/HD-DVDs
    Duration  : 57 min 0 s
    Bit rate  : 40.8 kb/s
    Count of elements  : 1778
    Stream size  : 16.6 MiB (0%)
    Default  : No
    Forced  : No
    
    Text #2
    ID  : 4
    Format  : PGS
    Muxing mode  : zlib
    Codec ID  : S_HDMV/PGS
    Codec ID/Info  : Picture based subtitle format used on BDs/HD-DVDs
    Duration  : 56 min 37 s
    Bit rate  : 52.0 kb/s
    Count of elements  : 1668
    Stream size  : 21.1 MiB (0%)
    Language  : Vietnamese
    Default  : Yes
    Forced  : No
    

    SCREENSHOT
    [​IMG]

    DOWNLOAD TRỌN BỘ 6 SEASON {SUB VIỆT MUX SẴN}
     
  11. tremocoivo

    tremocoivo Uploader

    Tham gia ngày:
    25/2/10
    Bài viết:
    3,947
    Đã được cảm ơn:
    106,312
    Giới tính:
    Nam
    Hãy Gọi Cho Saul (2015) - Trọn Bộ 6 Phần
    Better Call Saul Complete Series 1080p Bluray REMUX AVC DTS-HD MA 5.1 {Sub Việt Mux Sẵn}

    [​IMG]
    https://www.imdb.com/title/tt3032476/
    Là một phần spin-off tiền truyện nhưng Better Call Saul gần như vượt xa khỏi những tác phẩm điện ảnh cùng loại. Với đội ngũ nòng cốt được giữ nguyên hoàn toàn từ Breaking Bad, Better Call Saul thậm chí đã được một số lượng người xem đánh giá là còn hay hơn cả siêu phẩm TV đi trước.
    Một phần tiền truyện được định nghĩa là một bộ phim diễn ra trước thời điểm của câu chuyện gốc. Được đặt mốc thời gian trước Breaking Bad, khán giả đã biết trước được kết cục của rất nhiều những nhân vật chính trong Better Call Saul. Từ đó, cái hay của Better Call Saul không nằm ở câu hỏi “chuyện gì sẽ diễn ra?” mà thay vào đó là “chuyện này diễn ra như thế nào?”
    Sự biến đổi từ một luật sư ngay thẳng đến một tay lừa đảo, không màng đến luật pháp của Jimmy McGill đã được tiếp cận cực kì sâu sắc và mượt mà. Bộ phim vẫn giữ được tinh thần của vũ trụ Breaking Bad rằng tất cả hành động đều phải có hậu quả. Việc “trở thành người xấu” của từng nhân vật trong Better Call Saul vì thế mà trở thành những màn bi kịch đen tối và đầy cuốn hút.

    Mã:
    
    General
    Filename.......: Better.Call.Saul.S01E01.Uno.1080p.DTS-HD.MA.5.1.AVC.REMUX-FraMeSToR_Vietsub
    Container......: Matroska
    Duration.......: 53 min 5 s 216 ms
    Size...........: 9.77 GiB
    
    Video
    Codec..........:  [email protected] 8 bits
    Type...........: Progressive
    Resolution.....: 1920x1080
    Aspect ratio...: 1.778:1
    Bit rate.......: 23.7 Mb/s
    Frame rate.....: 23.976 (24000/1001) FPS
    
    Audio
    Format.........: DTS-HD Master Audio
    Channels.......: 6 channels
    Bit rate.......: 2 145 kb/s
    Language.......: English DTS-HD MA 5.1
    
    Audio
    Format.........: Dolby Digital
    Channels.......: 2 channels
    Bit rate.......: 192 kb/s
    Language.......: English Commentary by Cast and Crew
    
    Subtitles......: PGS English English
    Subtitles......: PGS English English (SDH)
    Subtitles......: PGS English English (Commentary)
    Subtitles......: PGS Arabic Arabic
    Subtitles......: PGS Danish Danish
    Subtitles......: PGS Finnish Finnish
    Subtitles......: PGS German German
    Subtitles......: PGS Hindi Hindi
    Subtitles......: PGS Norwegian Norwegian
    Subtitles......: PGS Polish Polish
    Subtitles......: PGS Spanish Spanish (Castilian)
    Subtitles......: PGS Swedish Swedish
    Subtitles......: PGS Turkish Turkish
    Subtitles......: PGS German German (Commentary)
    Subtitles......: PGS Spanish Spanish (Commentary)
    Subtitles......: UTF-8 Vietnamese Vietnam
    
    
    

    SCREENSHOT
    [​IMG]
    DOWNLOAD
    [​IMG]
     
  12. tremocoivo

    tremocoivo Uploader

    Tham gia ngày:
    25/2/10
    Bài viết:
    3,947
    Đã được cảm ơn:
    106,312
    Giới tính:
    Nam
    Thảm Họa Hạt Nhân Chernobyl (2019)
    Chernobyl S01 Hybrid 1080p BluRay REMUX AVC DTS-HDMA 5.1-EPSiLON {Sub Việt Mux Sẵn}

    [​IMG]
    [​IMG]
    https://www.imdb.com/title/tt7366338

    Chernobyl là một miniseries (phim truyền hình loạt ngắn) chính kịch lịch sử bao gồm năm tập được biên kịch bởi Craig Mazin, và được đạo diễn bởi Johan Renck. Chernobyl được sản xuất bởi HBO cùng với Sky UK, lấy bối cảnh khi thảm họa hạt nhân Chernobyl xảy ra vào tháng 4 năm 1986 và những nỗ lực nhằm khắc phục hậu quả. Bộ phim có sự tham gia của các diễn viên Jared Harris, Stellan Skarsgård, Emily Watson và Paul Ritter.

    Chernobyl được công chiếu tại Hoa Kỳ và Vương quốc Anh vào ngày 6 tháng 5 năm 2019 và đã nhận được những đánh giá tích cực từ các nhà phê bình. Tại lễ Trao Giải Primetime Emmy lần thứ 71, phim đã được đề cử 19 hạng mục, trong đó có Phim truyền hình ngắn tập xuất sắc nhất và phần diễn xuất của Harris, Skarsgård và Watson. Tại lễ trao giải Quả cầu vàng lần thứ 77, phim đã giành giải Phim truyền hình ngắn tập hay nhất và Skarsgard giành giải Nam diễn viên phụ phim truyền hình xuất sắc nhất.

    Chernobyl kịch tính hóa câu chuyện có thật về một trong những thảm họa hạt nhân tồi tệ nhất trong lịch sử. Bộ phim chủ yếu tập trung vào thảm họa nhà máy hạt nhân xảy ra ở SSR Ucraina (Liên Xô) vào tháng 4 năm 1986, mô tả quá trình và nguyên nhân xảy ra, và cũng khắc họa về câu chuyện của những người đã tham gia khắc phục và đã chết trong việc giải quyết hậu quả của Chernobyl, thảm họa đã bị Liên Xô che đậy trước toàn thế giới.[2]

    Các tập phim dựa phần lớn vào những hồi ký của người dân địa phương Pripyat, như được kể bởi nhà văn đoạt giải Nobel của Bêlarut, bà Einide Alexievich trong cuốn sách của bà, Lời nguyện cầu từ Chernobyl.

    Mã:
    Video.....: MPEG-4 AVC Video / ~25000 kbps / 1080p / 23.976 fps / 16:9 / High Profile 4.1
    Audio.....: DTS-HD Master Audio / 5.1 / 48 kHz / 2782 kbps / 24-bit
    Source....: Chernobyl 2019 1080p GER Blu-ray AVC DTS-HD MA 5.1-REFLECTiON (Video and German sub)
                Chernobyl 2019 1080p Blu-ray AVC DTS-HD MA 5.1-HBONO (Parts of video, audio, and subs)
    Notes.....: Comparisons between GER and USA discs here. GBR was stretched and hence wasn't
    even considered for the remux. GER handles dark scenes much better than USA, with
    less banding.
    GER was at 25fps and was slowed down to 23.976 fps using eac3to.
    Since GER had German intertitles, these scenes were replaced by scenes from the USA disc.
    Audio from USA was used, since it was the only one at original fps(23.976).
    Subs from USA disc were synced to GER video. German sub was included after changing fps.
    Chapters from USA disc were used, with a little time adjustment to sync to GER video.
    I also cut out the German credits at the end of GER video for the first 4 episodes.
    The credits for the last episode were taken from USA disc.
    Forced subs have been included for the first and second episode.
    Enjoy. 
    Mã:
    General
    Complete name               : Chernobyl.S01E01.1.23.45.Hybrid.1080p.BluRay.REMUX.AVC.DTS-HD.MA.5.1-EPSiLON.mkv
    Format                      : Matroska
    Format version              : Version 4
    File size                   : 11.4 GiB
    Duration                    : 59 min 55 s
    Overall bit rate mode       : Variable
    Overall bit rate            : 27.2 Mb/s
    Movie name                  : Chernobyl - S01E01 - 1:23:45
    Track name/Position         : 1
    Track name/Total            : 5
    Encoded date                : UTC 2020-10-14 16:20:32
    Writing application         : mkvmerge v49.0.0 ('Sick Of Losing Soulmates') 64-bit
    Writing library             : libebml v1.4.0 + libmatroska v1.6.1
    IMDB                        : tt8162428
    TMDB                        : tv/87108
    TVDB                        : 360893
    
    Video
    ID                          : 1
    Format                      : AVC
    Format/Info                 : Advanced Video Codec
    Format profile              : [email protected]
    Format settings             : CABAC / 3 Ref Frames
    Format settings, CABAC      : Yes
    Format settings, Reference  : 3 frames
    Codec ID                    : V_MPEG4/ISO/AVC
    Duration                    : 58 min 43 s
    Bit rate mode               : Variable
    Bit rate                    : 24.9 Mb/s
    Maximum bit rate            : 34.0 Mb/s
    Width                       : 1 920 pixels
    Height                      : 1 080 pixels
    Display aspect ratio        : 16:9
    Frame rate mode             : Constant
    Frame rate                  : 23.976 (24000/1001) FPS
    Color space                 : YUV
    Chroma subsampling          : 4:2:0
    Bit depth                   : 8 bits
    Scan type                   : Progressive
    Bits/(Pixel*Frame)          : 0.500
    Stream size                 : 10.2 GiB (90%)
    Title                       : MPEG-4 AVC Video / 24943 kbps / 1080p / 23.976 fps / 16:9 / High Profile 4.1
    Default                     : Yes
    Forced                      : No
    
    Audio
    ID                          : 2
    Format                      : DTS XLL
    Format/Info                 : Digital Theater Systems
    Commercial name             : DTS-HD Master Audio
    Codec ID                    : A_DTS
    Duration                    : 58 min 43 s
    Bit rate mode               : Variable
    Bit rate                    : 2 782 kb/s
    Channel(s)                  : 6 channels
    Channel layout              : C L R Ls Rs LFE
    Sampling rate               : 48.0 kHz
    Frame rate                  : 93.750 FPS (512 SPF)
    Bit depth                   : 24 bits
    Compression mode            : Lossless
    Delay relative to video     : 4 ms
    Stream size                 : 1.14 GiB (10%)
    Title                       : DTS-HD Master Audio / 5.1 / 48 kHz / 2782 kbps / 24-bit
    Language                    : English
    Default                     : Yes
    Forced                      : No
    
    Text #1
    ID                          : 3
    Format                      : PGS
    Muxing mode                 : zlib
    Codec ID                    : S_HDMV/PGS
    Codec ID/Info               : Picture based subtitle format used on BDs/HD-DVDs
    Duration                    : 33 s 520 ms
    Bit rate                    : 71.9 kb/s
    Count of elements           : 24
    Stream size                 : 294 KiB (0%)
    Title                       : Forced
    Language                    : English
    Default                     : No
    Forced                      : Yes
    
    Text #2
    ID                          : 4
    Format                      : PGS
    Muxing mode                 : zlib
    Codec ID                    : S_HDMV/PGS
    Codec ID/Info               : Picture based subtitle format used on BDs/HD-DVDs
    Duration                    : 55 min 22 s
    Bit rate                    : 31.6 kb/s
    Count of elements           : 1273
    Stream size                 : 12.5 MiB (0%)
    Title                       : SDH
    Language                    : English
    Default                     : No
    Forced                      : No
    
    Text #3
    ID                          : 5
    Format                      : PGS
    Muxing mode                 : zlib
    Codec ID                    : S_HDMV/PGS
    Codec ID/Info               : Picture based subtitle format used on BDs/HD-DVDs
    Duration                    : 53 min 25 s
    Bit rate                    : 16.0 kb/s
    Count of elements           : 902
    Stream size                 : 6.12 MiB (0%)
    Language                    : Czech
    Default                     : No
    Forced                      : No
    
    Text #4
    ID                          : 6
    Format                      : PGS
    Muxing mode                 : zlib
    Codec ID                    : S_HDMV/PGS
    Codec ID/Info               : Picture based subtitle format used on BDs/HD-DVDs
    Duration                    : 53 min 24 s
    Bit rate                    : 23.4 kb/s
    Count of elements           : 820
    Stream size                 : 8.93 MiB (0%)
    Language                    : Danish
    Default                     : No
    Forced                      : No
    
    Text #5
    ID                          : 7
    Format                      : PGS
    Muxing mode                 : zlib
    Codec ID                    : S_HDMV/PGS
    Codec ID/Info               : Picture based subtitle format used on BDs/HD-DVDs
    Duration                    : 53 min 25 s
    Bit rate                    : 21.8 kb/s
    Count of elements           : 694
    Stream size                 : 8.32 MiB (0%)
    Language                    : Dutch
    Default                     : No
    Forced                      : No
    
    Text #6
    ID                          : 8
    Format                      : PGS
    Muxing mode                 : zlib
    Codec ID                    : S_HDMV/PGS
    Codec ID/Info               : Picture based subtitle format used on BDs/HD-DVDs
    Duration                    : 53 min 24 s
    Bit rate                    : 23.0 kb/s
    Count of elements           : 878
    Stream size                 : 8.81 MiB (0%)
    Language                    : Finnish
    Default                     : No
    Forced                      : No
    
    Text #7
    ID                          : 9
    Format                      : PGS
    Muxing mode                 : zlib
    Codec ID                    : S_HDMV/PGS
    Codec ID/Info               : Picture based subtitle format used on BDs/HD-DVDs
    Duration                    : 58 min 1 s
    Bit rate                    : 22.8 kb/s
    Count of elements           : 1098
    Stream size                 : 9.47 MiB (0%)
    Language                    : French
    Default                     : No
    Forced                      : No
    
    Text #8
    ID                          : 10
    Format                      : PGS
    Muxing mode                 : zlib
    Codec ID                    : S_HDMV/PGS
    Codec ID/Info               : Picture based subtitle format used on BDs/HD-DVDs
    Duration                    : 53 min 25 s
    Bit rate                    : 31.0 kb/s
    Count of elements           : 960
    Stream size                 : 11.8 MiB (0%)
    Language                    : German
    Default                     : No
    Forced                      : No
    
    Text #9
    ID                          : 11
    Format                      : PGS
    Muxing mode                 : zlib
    Codec ID                    : S_HDMV/PGS
    Codec ID/Info               : Picture based subtitle format used on BDs/HD-DVDs
    Duration                    : 53 min 26 s
    Bit rate                    : 22.9 kb/s
    Count of elements           : 817
    Stream size                 : 8.77 MiB (0%)
    Language                    : Norwegian
    Default                     : No
    Forced                      : No
    
    Text #10
    ID                          : 12
    Format                      : PGS
    Muxing mode                 : zlib
    Codec ID                    : S_HDMV/PGS
    Codec ID/Info               : Picture based subtitle format used on BDs/HD-DVDs
    Duration                    : 53 min 24 s
    Bit rate                    : 23.2 kb/s
    Count of elements           : 860
    Stream size                 : 8.85 MiB (0%)
    Title                       : Castilian
    Language                    : Spanish
    Default                     : No
    Forced                      : No
    
    Text #11
    ID                          : 13
    Format                      : PGS
    Muxing mode                 : zlib
    Codec ID                    : S_HDMV/PGS
    Codec ID/Info               : Picture based subtitle format used on BDs/HD-DVDs
    Duration                    : 53 min 24 s
    Bit rate                    : 27.7 kb/s
    Count of elements           : 1258
    Stream size                 : 10.6 MiB (0%)
    Title                       : Latin American
    Language                    : Spanish
    Default                     : No
    Forced                      : No
    
    Text #12
    ID                          : 14
    Format                      : PGS
    Muxing mode                 : zlib
    Codec ID                    : S_HDMV/PGS
    Codec ID/Info               : Picture based subtitle format used on BDs/HD-DVDs
    Duration                    : 53 min 24 s
    Bit rate                    : 24.6 kb/s
    Count of elements           : 836
    Stream size                 : 9.40 MiB (0%)
    Language                    : Swedish
    Default                     : No
    Forced                      : No
    
    Text #13
    ID                          : 15
    Format                      : UTF-8
    Codec ID                    : S_TEXT/UTF8
    Codec ID/Info               : UTF-8 Plain Text
    Duration                    : 59 min 21 s
    Bit rate                    : 52 b/s
    Count of elements           : 517
    Stream size                 : 22.8 KiB (0%)
    Language                    : Vietnamese
    Default                     : Yes
    Forced                      : No
    
    Menu
    00:00:00.000                : en:Chapter 1
    00:00:32.741                : en:Chapter 2
    00:06:29.597                : en:Chapter 3
    00:16:32.867                : en:Chapter 4
    00:26:25.918                : en:Chapter 5
    00:35:31.379                : en:Chapter 6
    00:47:33.142                : en:Chapter 7
    00:56:11.118                : en:Chapter 8
    
    

    SCREENSHOT
    [​IMG]
    DOWNLOAD
    [​IMG]
     
  13. polaris70

    polaris70 Member

    Tham gia ngày:
    17/1/22
    Bài viết:
    87
    Đã được cảm ơn:
    34
    Giới tính:
    Nam
    cam on ban nhieu nhe. minh luon luon thich down phim tu ban vi chat luong phim tot va file nhę :;)
     
    KT2501, sonca60 and tremocoivo like this.
  14. hunglua284

    hunglua284 New Member

    Tham gia ngày:
    27/4/22
    Bài viết:
    1
    Đã được cảm ơn:
    3
    Giới tính:
    Nam
    Thiếu file S05.E08 bạn bổ sung giúp nhé.
     
    minhnghien, loctran999 and tremocoivo like this.
  15. tremocoivo

    tremocoivo Uploader

    Tham gia ngày:
    25/2/10
    Bài viết:
    3,947
    Đã được cảm ơn:
    106,312
    Giới tính:
    Nam
    Đã REUP tập này nha.
     
    loctran999 and hunglua284 like this.
  16. tremocoivo

    tremocoivo Uploader

    Tham gia ngày:
    25/2/10
    Bài viết:
    3,947
    Đã được cảm ơn:
    106,312
    Giới tính:
    Nam

    Biệt Đội Titans (2018)
    Titans 2018 S01-S04 1080p BluRay REMUX AVC DTS-HD MA 5.1 {Sub Việt Mux Sẵn}

    [​IMG]
    https://www.imdb.com/title/tt1043813

    Do lo sợ một thế lực ma quái đang cố gắng chiếm lấy bản thân mình, nữ phù thủy trẻ tuổi Raven (Teagan Croft) liền tìm gặp chàng thanh tra Dick Grayson/Robin (Brenton Thwaites) để cầu xin sự giúp đỡ. Sử dụng năng lực tâm linh, cô nàng đã thuyết phục được Grayson nhờ nói trúng kí ức đau buồn nhất đời anh: mất bố mẹ trong một vụ tai nạn nghề xiếc thương tâm. Ngoài hai nhân vật này, hai thành viên khác là Beast Boy (Ryan Potter), Star Fire “phiên bản gây tranh cãi” (Anna Diop) cùng cặp đôi phản anh hùng Hawk và Dove.

    PHP:
    General
    Complete name               
    Titans.2018.S01E01.Titans.1080p.BluRay.REMUX.AVC.DTS-HD.MA.5.1-EPSiLON_Vietsub.mkv
    Format                      
    Matroska
    Format version              
    Version 4
    File size                   
    7.11 GiB
    Duration                    
    50 min 45 s
    Overall bit rate mode       
    Variable
    Overall bit rate            
    20.0 Mb/s
    Movie name                  
    Titans (2018) - S01E01 Titans
    Track name
    /Position         1
    Track name
    /Total            11
    Encoded date                
    UTC 2021-08-23 12:27:32
    Writing application         
    mkvmerge v57.0.0 ('Till The End'64-bit
    Writing library             
    libebml v1.4.2 libmatroska v1.6.4
    IMDB                        
    tt7224638
    TMDB                        
    tv/75450
    TVDB                        
    341663

    Video
    ID                          
    1
    Format                      
    AVC
    Format
    /Info                 Advanced Video Codec
    Format profile              
    High@L4.1
    Format settings             
    CABAC 4 Ref Frames
    Format settings
    CABAC      Yes
    Format settings
    Reference  4 frames
    Codec ID                    
    V_MPEG4/ISO/AVC
    Duration                    
    50 min 45 s
    Bit rate mode               
    Variable
    Bit rate                    
    17.8 Mb/s
    Maximum bit rate            
    38.0 Mb/s
    Width                       
    1 920 pixels
    Height                      
    1 080 pixels
    Display aspect ratio        
    16:9
    Frame rate mode             
    Constant
    Frame rate                  
    23.976 (24000/1001FPS
    Color space                 
    YUV
    Chroma subsampling          
    4:2:0
    Bit depth                   
    8 bits
    Scan type                   
    Progressive
    Bits
    /(Pixel*Frame)          : 0.358
    Stream size                 
    6.32 GiB (89%)
    Title                       MPEG-4 AVC Video 17991 kbps 1080p 23.976 fps 16:High Profile 4.1
    Language                    
    English
    Default                     : Yes
    Forced                      
    No

    Audio
    ID                          
    2
    Format                      
    DTS XLL
    Format
    /Info                 Digital Theater Systems
    Commercial name             
    DTS-HD Master Audio
    Codec ID                    
    A_DTS
    Duration                    
    50 min 45 s
    Bit rate mode               
    Variable
    Bit rate                    
    2 206 kb/s
    Channel
    (s)                  : 6 channels
    Channel layout              
    C L R Ls Rs LFE
    Sampling rate               
    48.0 kHz
    Frame rate                  
    93.750 FPS (512 SPF)
    Bit depth                   16 bits
    Compression mode            
    Lossless
    Stream size                 
    801 MiB (11%)
    Title                       DTS-HD Master Audio 5.1 48 kHz 2206 kbps 16-bit
    Language                    
    English
    Default                     : Yes
    Forced                      
    No

    Text 
    #1
    ID                          3
    Format                      
    PGS
    Muxing mode                 
    zlib
    Codec ID                    
    S_HDMV/PGS
    Codec ID
    /Info               Picture based subtitle format used on BDs/HD-DVDs
    Duration                    
    48 min 33 s
    Bit rate                    
    21.0 kb/s
    Count of elements           
    1032
    Stream size                 
    7.30 MiB (0%)
    Title                       SDH
    Language                    
    English
    Default                     : No
    Forced                      
    No

    Text 
    #2
    ID                          4
    Format                      
    UTF-8
    Codec ID                    
    S_TEXT/UTF8
    Codec ID
    /Info               UTF-8 Plain Text
    Duration                    
    50 min 33 s
    Bit rate                    
    33 b/s
    Count of elements           
    355
    Stream size                 
    12.4 KiB (0%)
    Language                    Vietnamese
    Default                     : Yes
    Forced                      
    No

    Menu
    00
    :00:00.000                Chapter 1
    00
    :04:39.738                Chapter 2
    00
    :15:19.752                Chapter 3
    00
    :23:57.728                Chapter 4
    00
    :32:54.014                Chapter 5
    00
    :40:32.013                Chapter 6
    00
    :49:06.318                Chapter 7

    SCREENSHOT
    [​IMG]
    DOWNLOAD
     
  17. tremocoivo

    tremocoivo Uploader

    Tham gia ngày:
    25/2/10
    Bài viết:
    3,947
    Đã được cảm ơn:
    106,312
    Giới tính:
    Nam

    Thế Thần: Tiết Khí Sư Cuối Cùng (2005 - 2008)
    Avatar: The Last Airbender Complete Series 1080p BluRay REMUX AVC DTS-HD MA 2.0-H72 {Sub Việt Mux Sẵn}

    [​IMG]
    [​IMG]
    https://www.imdb.com/title/tt0417299

    Avatar: The Last Airbender (tạm dịch: Thế Thần: Tiết khí sư cuối cùng) là một bộ phim hoạt hình Mỹ được chia thành ba phần bởi Nickelodeon từ năm 2005 đến 2008. Bộ phim được tạo và sản xuất bởi Michael Dante DiMartino và Bryan Konietzko. Avatar: The Last Airbender được đặt trong một thế giới Á Đông mà trong đó một số nguyên tố cơ bản có thể được điều khiển bởi các biến thể tâm linh của võ thuật Trung Hoa, còn được biết như là "ngự thuật" (bending). Bộ phim kết hợp những phong cách của anime Nhật Bản và hoạt hình cartoon Mỹ.

    Bộ phim kể về cuộc phiêu lưu của nhân vật chính mười hai tuổi Aang và nhóm bạn, những người phải mang hòa bình và sự thống nhất thế giới khỏi cuộc chiến xâm lược đế quốc của Hỏa Quốc với ba quốc gia khác. Bộ phim đã được đề cử và thắng các giải thưởng như giải Annie, giải Genesis và giải Emmy.

    Mã:
    General
    Complete name               : Avatar.The.Last.Airbender.S01E01.1080p.BluRay.REMUX.AVC.DTS-HD.MA.2.0-H72.mkv
    Format                      : Matroska
    Format version              : Version 4
    File size                   : 4.90 GiB
    Duration                    : 23 min 40 s
    Overall bit rate mode       : Variable
    Overall bit rate            : 29.6 Mb/s
    Movie name                  : AVATAR__THE_LAST_AIRBENDER__BOOK_ONE__WATER__DISC_1.Title601
    Encoded date                : UTC 2021-01-06 18:20:18
    Writing application         : mkvmerge v49.0.0 ('Sick Of Losing Soulmates') 64-bit
    Writing library             : libebml v1.4.0 + libmatroska v1.6.1
    
    Video
    ID                          : 1
    Format                      : AVC
    Format/Info                 : Advanced Video Codec
    Format profile              : [email protected]
    Format settings             : CABAC / 4 Ref Frames
    Format settings, CABAC      : Yes
    Format settings, Reference  : 4 frames
    Format settings, GOP        : M=1, N=12
    Codec ID                    : V_MPEG4/ISO/AVC
    Duration                    : 23 min 39 s
    Bit rate mode               : Variable
    Bit rate                    : 27.8 Mb/s
    Maximum bit rate            : 35.0 Mb/s
    Width                       : 1 920 pixels
    Height                      : 1 080 pixels
    Display aspect ratio        : 16:9
    Frame rate mode             : Constant
    Frame rate                  : 23.976 (24000/1001) FPS
    Color space                 : YUV
    Chroma subsampling          : 4:2:0
    Bit depth                   : 8 bits
    Scan type                   : Progressive
    Bits/(Pixel*Frame)          : 0.559
    Stream size                 : 4.59 GiB (94%)
    Default                     : Yes
    Forced                      : No
    
    Audio
    ID                          : 2
    Format                      : DTS XLL
    Format/Info                 : Digital Theater Systems
    Commercial name             : DTS-HD Master Audio
    Codec ID                    : A_DTS
    Duration                    : 23 min 40 s
    Bit rate mode               : Variable
    Bit rate                    : 1 802 kb/s
    Channel(s)                  : 2 channels
    Channel layout              : L R
    Sampling rate               : 48.0 kHz
    Frame rate                  : 93.750 FPS (512 SPF)
    Bit depth                   : 24 bits
    Compression mode            : Lossless
    Stream size                 : 305 MiB (6%)
    Language                    : English
    Default                     : Yes
    Forced                      : No
    
    Text #1
    ID                          : 3
    Format                      : PGS
    Muxing mode                 : zlib
    Codec ID                    : S_HDMV/PGS
    Codec ID/Info               : Picture based subtitle format used on BDs/HD-DVDs
    Duration                    : 22 min 53 s
    Bit rate                    : 41.9 kb/s
    Count of elements           : 766
    Stream size                 : 6.86 MiB (0%)
    Language                    : English
    Default                     : No
    Forced                      : No
    
    Text #2
    ID                          : 4
    Format                      : UTF-8
    Codec ID                    : S_TEXT/UTF8
    Codec ID/Info               : UTF-8 Plain Text
    Duration                    : 22 min 38 s
    Bit rate                    : 74 b/s
    Count of elements           : 315
    Stream size                 : 12.4 KiB (0%)
    Language                    : Vietnamese
    Default                     : Yes
    Forced                      : No
    
    Menu
    00:00:00.000                : en:(01)00:00:00:000
    00:06:50.910                : en:(02)00:06:50:910
    00:11:53.921                : en:(03)00:11:53:921
    00:17:19.496                : en:(04)00:17:19:496
    00:22:52.954                : en:(05)00:22:52:954
    00:23:40.252                : en:(06)00:23:40:252
    

    SCREENSHOT
    [​IMG]
    DOWNLOAD
     
  18. tremocoivo

    tremocoivo Uploader

    Tham gia ngày:
    25/2/10
    Bài viết:
    3,947
    Đã được cảm ơn:
    106,312
    Giới tính:
    Nam
    Truyền Thuyết Về Korra (2012-2014) - Trọn Bộ 4 Phần
    The Legend of Korra Complete Series 1080p BluRay REMUX AVC DTS-HD MA 5.1-EPSiLON {Sub Việt Mux Sẵn}

    [​IMG]
    https://www.imdb.com/title/tt1695360
    70 năm sau chiến tranh với Hỏa Quốc, Avatar Aang đã qua đời và người lãnh nhiệm trọng trách tiếp theo của ông là Korra, một cô bé sinh ra tại một ngôi làng Thủy tộc ở Nam cực. Lúc bước vào tuổi 17, sau khi đã thuần thục ba nguyên tố lửa, nước và đất, Korra khăn gói đến thành phố Cộng Hòa để mong được sư Tenzin truyền dạy nguyên tố cuối cùng. Nhưng tất cả trở nên khó khăn hơn khi cô gái trẻ Korra không thể làm chủ bản thân để có thể tới đích đến mình mong muốn. Và trên con đường gian nan đó, Korra dần khám phá những thế lực phản động phía sau mặt tối đô thành...

    Mã:
    General
    Complete name               : The.Legend.of.Korra.S01E01.Welcome.to.Republic.City.1080p.BluRay.REMUX.AVC.DTS-HD.MA.5.1-EPSiLON_Vietsub.mkv
    Format                      : Matroska
    Format version              : Version 4
    File size                   : 5.53 GiB
    Duration                    : 24 min 4 s
    Overall bit rate mode       : Variable
    Overall bit rate            : 32.9 Mb/s
    Encoded date                : UTC 2021-01-10 16:57:25
    Writing application         : mkvmerge v49.0.0 ('Sick Of Losing Soulmates') 64-bit
    Writing library             : libebml v1.4.0 + libmatroska v1.6.1
    
    Video
    ID                          : 1
    Format                      : AVC
    Format/Info                 : Advanced Video Codec
    Format profile              : [email protected]
    Format settings             : CABAC / 4 Ref Frames
    Format settings, CABAC      : Yes
    Format settings, Reference  : 4 frames
    Codec ID                    : V_MPEG4/ISO/AVC
    Duration                    : 24 min 4 s
    Bit rate mode               : Variable
    Bit rate                    : 30.0 Mb/s
    Maximum bit rate            : 39.0 Mb/s
    Width                       : 1 920 pixels
    Height                      : 1 080 pixels
    Display aspect ratio        : 16:9
    Frame rate mode             : Constant
    Frame rate                  : 23.976 (24000/1001) FPS
    Color space                 : YUV
    Chroma subsampling          : 4:2:0
    Bit depth                   : 8 bits
    Scan type                   : Progressive
    Bits/(Pixel*Frame)          : 0.604
    Stream size                 : 5.05 GiB (91%)
    Title                       : MPEG-4 AVC Video / ~31100 kbps / 1080p / 23.976 fps / 16:9 / High Profile 4.1
    Language                    : English
    Default                     : Yes
    Forced                      : No
    
    Audio #1
    ID                          : 2
    Format                      : DTS XLL
    Format/Info                 : Digital Theater Systems
    Commercial name             : DTS-HD Master Audio
    Codec ID                    : A_DTS
    Duration                    : 24 min 4 s
    Bit rate mode               : Variable
    Bit rate                    : 2 630 kb/s
    Channel(s)                  : 6 channels
    Channel layout              : C L R Ls Rs LFE
    Sampling rate               : 48.0 kHz
    Frame rate                  : 93.750 FPS (512 SPF)
    Bit depth                   : 24 bits
    Compression mode            : Lossless
    Stream size                 : 453 MiB (8%)
    Title                       : DTS-HD Master Audio / 5.1 / 48 kHz / ~2700 kbps / 24-bit
    Language                    : English
    Default                     : Yes
    Forced                      : No
    
    Audio #2
    ID                          : 3
    Format                      : AC-3
    Format/Info                 : Audio Coding 3
    Commercial name             : Dolby Digital
    Codec ID                    : A_AC3
    Duration                    : 24 min 4 s
    Bit rate mode               : Constant
    Bit rate                    : 224 kb/s
    Channel(s)                  : 2 channels
    Channel layout              : L R
    Sampling rate               : 48.0 kHz
    Frame rate                  : 31.250 FPS (1536 SPF)
    Compression mode            : Lossy
    Stream size                 : 38.6 MiB (1%)
    Title                       : Commentary by co-creators Michael Dante DiMartino and Bryan Konietzko and actor Janet Varney / Dolby Digital Audio / 2.0 / 48 kHz / 224 kbps
    Language                    : English
    Service kind                : Complete Main
    Default                     : No
    Forced                      : No
    
    Text #1
    ID                          : 4
    Format                      : PGS
    Muxing mode                 : zlib
    Codec ID                    : S_HDMV/PGS
    Codec ID/Info               : Picture based subtitle format used on BDs/HD-DVDs
    Duration                    : 23 min 13 s
    Bit rate                    : 41.8 kb/s
    Count of elements           : 589
    Stream size                 : 6.95 MiB (0%)
    Language                    : English
    Default                     : No
    Forced                      : No
    
    Text #2
    ID                          : 5
    Format                      : PGS
    Muxing mode                 : zlib
    Codec ID                    : S_HDMV/PGS
    Codec ID/Info               : Picture based subtitle format used on BDs/HD-DVDs
    Duration                    : 23 min 13 s
    Bit rate                    : 47.9 kb/s
    Count of elements           : 710
    Stream size                 : 7.96 MiB (0%)
    Title                       : SDH
    Language                    : English
    Default                     : No
    Forced                      : No
    
    Text #3
    ID                          : 6
    Format                      : UTF-8
    Codec ID                    : S_TEXT/UTF8
    Codec ID/Info               : UTF-8 Plain Text
    Duration                    : 23 min 18 s
    Bit rate                    : 83 b/s
    Count of elements           : 346
    Stream size                 : 14.3 KiB (0%)
    Language                    : Vietnamese
    Default                     : Yes
    Forced                      : No
    
    Menu
    00:00:00.000                : en:Chapter 1
    00:07:13.933                : en:Chapter 2
    00:16:37.038                : en:Chapter 3
    00:23:28.616                : en:Chapter 4
    
    
    SCREENSHOT
    [​IMG]
    DOWNLOAD
     
  19. tremocoivo

    tremocoivo Uploader

    Tham gia ngày:
    25/2/10
    Bài viết:
    3,947
    Đã được cảm ơn:
    106,312
    Giới tính:
    Nam
    Giả Kim Thuật Sư (2009)
    Fullmetal Alchemist: Brotherhood 2009 LE 1080p BluRay REMUX AVC LPCM 2.0-Manifesto {Sub Việt Mux Sẵn}

    [​IMG]
    [​IMG]
    https://www.imdb.com/title/tt1355642

    Giả Kim Thuật Sư, Fullmetal Alchemist: Brotherhood kể về Edward và Alphonse Elric, 2 anh em sống ở làng Resembool thuộc quốc gia Amestris đã phải chịu đựng những mất mát lớn từ khi còn rất nhỏ. Sau khi cha chúng, Hohenheim bỏ đi, ng mẹ đáng kính cũng qua đời ko lâu sau đó. Không chấp nhận đc sự thật phũ phàng, Ed và Al đã mắc một sai lầm nghiêm trọng, vi phạm vào một trong 3 điều luật quan trọng nhất của nhà giả kim: Tái tạo con người. Thất bại trg việc đưa mẹ mình trở lại từ cái chết, Ed và Al đã phải trả những cái giá quá đắt: Ed bị mất chân trái còn Al mất cả cơ thể. Để cứu em trai, Ed đã hy sinh luôn cánh tay phải để giữ lại linh hồn của em, đưa vào trong một bộ giáp sắt. Từ đó, Ed phải sử dụng tay chân giả còn Al thì trở thành một bộ giáp sắt trống rỗng. Hối hận vì hành động bồng bột của mình, Ed quyết tâm trở thành một nhà giả kim thuật Quốc gia (hay còn gọi là "chó săn của quân đội", "vũ khí sống của quân đội" .... nếu nói theo 1 cách trắng trợn") để có thêm quyền lợi mà tự do đi tìm cách thức phục hồi lại cơ thể cho mình và em trai: đi tìm Hòn đá Vạn năng (Philosopher';s Stone). Và kể từ đó, Edward đc biết đến như là một thần đồng giả kim thuật quốc gia, nhà Cang Giả kim thuật. Trên hành trình tìm Hòn đá vạn năng, 2 anh em nhà Elric dần khám phá ra những bí mật khủng khiếp ẩn sau cuộc nội chiến và hòn đá thần kì này.

    Mã:
    General
    Complete name               : Fullmetal Alchemist Brotherhood S01E01 1080p BluRay REMUX AVC LPCM 2.0-Manifesto_Vietsub.mkv
    Format                      : Matroska
    Format version              : Version 4
    File size                   : 4.96 GiB
    Duration                    : 24 min 28 s
    Overall bit rate mode       : Variable
    Overall bit rate            : 29.0 Mb/s
    Movie name                  : Fullmetal Alchemist Brotherhood - Limited Edition
    Encoded date                : UTC 2021-02-07 15:25:07
    Writing application         : mkvmerge v49.0.0 ('Sick Of Losing Soulmates') 64-bit
    Writing library             : libebml v1.4.0 + libmatroska v1.6.1
    Attachments                 : AnimakerStyled.ttf
    
    Video
    ID                          : 1
    ID in the original source m : 4113 (0x1011)
    Format                      : AVC
    Format/Info                 : Advanced Video Codec
    Format profile              : [email protected]
    Format settings             : CABAC / 4 Ref Frames
    Format settings, CABAC      : Yes
    Format settings, Reference  : 4 frames
    Codec ID                    : V_MPEG4/ISO/AVC
    Duration                    : 24 min 28 s
    Bit rate mode               : Variable
    Bit rate                    : 27.5 Mb/s
    Maximum bit rate            : 40.0 Mb/s
    Width                       : 1 920 pixels
    Height                      : 1 080 pixels
    Display aspect ratio        : 16:9
    Frame rate mode             : Constant
    Frame rate                  : 23.976 (24000/1001) FPS
    Color space                 : YUV
    Chroma subsampling          : 4:2:0
    Bit depth                   : 8 bits
    Scan type                   : Progressive
    Bits/(Pixel*Frame)          : 0.553
    Stream size                 : 4.70 GiB (95%)
    Title                       : Original Blu-Ray Limited Edition
    Language                    : Japanese
    Default                     : Yes
    Forced                      : No
    Color range                 : Limited
    Color primaries             : BT.709
    Transfer characteristics    : BT.709
    Matrix coefficients         : BT.709
    Original source medium      : Blu-ray
    
    Audio
    ID                          : 2
    ID in the original source m : 4352 (0x1100)
    Format                      : PCM
    Format settings             : Little / Signed
    Codec ID                    : A_PCM/INT/LIT
    Duration                    : 24 min 28 s
    Bit rate mode               : Constant
    Bit rate                    : 1 536 kb/s
    Channel(s)                  : 2 channels
    Sampling rate               : 48.0 kHz
    Frame rate                  : 30.000 FPS (1600 SPF)
    Bit depth                   : 16 bits
    Stream size                 : 269 MiB (5%)
    Title                       : Original LPCM 2.0
    Language                    : Japanese
    Default                     : Yes
    Forced                      : No
    Original source medium      : Blu-ray
    
    Text #1
    ID                          : 3
    Format                      : ASS
    Codec ID                    : S_TEXT/ASS
    Codec ID/Info               : Advanced Sub Station Alpha
    Duration                    : 24 min 15 s
    Bit rate                    : 132 b/s
    Count of elements           : 393
    Compression mode            : Lossless
    Stream size                 : 23.6 KiB (0%)
    Title                       : Animaker Styled
    Language                    : English
    Default                     : Yes
    Forced                      : No
    
    Text #2
    ID                          : 4
    Format                      : ASS
    Codec ID                    : S_TEXT/ASS
    Codec ID/Info               : Advanced Sub Station Alpha
    Duration                    : 24 min 15 s
    Bit rate                    : 158 b/s
    Count of elements           : 354
    Compression mode            : Lossless
    Stream size                 : 28.1 KiB (0%)
    Language                    : Vietnamese
    Default                     : No
    Forced                      : No
    
    Menu
    00:00:00.000                : ja:Chapter 01
    00:00:58.808                : ja:Chapter 02
    00:02:28.773                : ja:Chapter 03
    00:10:55.154                : ja:Chapter 04
    00:22:27.137                : ja:Chapter 05
    00:23:57.602                : ja:Chapter 06
    

    SCREENSHOT
    [​IMG]
    DOWNLOAD
     
  20. tremocoivo

    tremocoivo Uploader

    Tham gia ngày:
    25/2/10
    Bài viết:
    3,947
    Đã được cảm ơn:
    106,312
    Giới tính:
    Nam
    Đại Chiến Người Khổng Lồ (2013-2020)
    Attack on Titan (aka Shingeki no Kyojin) Complete Series 1080p TrueHD 5.1 AVC REMUX {Sub Việt Mux Sẵn}

    [​IMG]
    [​IMG]
    https://www.imdb.com/title/tt2560140

    Đại chiến Titan (進撃の巨人 Shingeki no Kyojin?, "Advancing Giants" hay "Attack on Titan") là một loạt manga Nhật Bản được viết và minh họa bởi họa sĩ Isayama Hajime. Truyện đặt bối cảnh trong một thế giới giả tưởng, nơi con người sống trong các lãnh thổ được bao quanh bởi ba bức tường khổng lồ, bảo vệ họ khỏi những kẻ khổng lồ ăn thịt người - được biết đến dưới cái tên Titan.

    Series lần đầu được đăng ở tạp chí Bessatsu Shōnen của công ty Kodansha vào ngày 9 tháng 9 năm 2009, và đã được tuyển chọn thành 30 tập tankōbon tính đến tháng 12 năm 2019. Đại chiến Titan đã đạt được một thành tựu lớn trong dư luận và thương mại. Tính tới tháng 9 năm 2019, đã có hơn 100 triệu bản tankōbon được in ra trên toàn thế giới, khiến cho nó trở thành một trong những sê-ri manga bán chạy nhất. Đại chiến Titan đã giành được một số giải thưởng, bao gồm giải Kodansha Manga, giải Micheluzzi và giải Harvey.

    Bộ phim truyền hình anime, được sản xuất bởi Wit Studio, cũng đã được các nhà phê bình đón nhận với ba mùa đầu tiên được hoan nghênh với nhiều lời khen cho cốt truyện, hoạt họa, âm nhạc và lồng tiếng, và được chứng tỏ là cực kì thành công ở Nhật Bản, Mĩ, Châu Âu và Châu Á, do đó thúc đẩy sự phổ biến của loạt phim.

    Mã:
    General
    Complete name               : Attack on Titan S03E01 2018 Bluray 1080p TRUEHD 5.1 Hybrid-REMUX Dual Audio.mkv
    Format                      : Matroska
    Format version              : Version 4
    File size                   : 6.59 GiB
    Duration                    : 24 min 2 s
    Overall bit rate mode       : Variable
    Overall bit rate            : 39.2 Mb/s
    Encoded date                : UTC 2020-09-27 05:31:57
    Writing application         : mkvmerge v49.0.0 ('Sick Of Losing Soulmates') 64-bit
    Writing library             : libebml v1.4.0 + libmatroska v1.6.1
    Attachments                 : ANGIE-BOLD.TTF / ANGIE-BOLDITALIC.TTF / CLEARFACESSIBOLD.TTF / KINESISSTD-BLACKITALIC.OTF / AGARAMONDPRO-REGULAR.OTF
    
    Video
    ID                          : 1
    Format                      : AVC
    Format/Info                 : Advanced Video Codec
    Format profile              : [email protected]
    Format settings             : CABAC / 4 Ref Frames
    Format settings, CABAC      : Yes
    Format settings, Reference  : 4 frames
    Codec ID                    : V_MPEG4/ISO/AVC
    Duration                    : 23 min 56 s
    Bit rate mode               : Variable
    Bit rate                    : 36.1 Mb/s
    Maximum bit rate            : 38.0 Mb/s
    Width                       : 1 920 pixels
    Height                      : 1 080 pixels
    Display aspect ratio        : 16:9
    Frame rate mode             : Constant
    Frame rate                  : 23.976 (24000/1001) FPS
    Color space                 : YUV
    Chroma subsampling          : 4:2:0
    Bit depth                   : 8 bits
    Scan type                   : Progressive
    Bits/(Pixel*Frame)          : 0.727
    Stream size                 : 6.04 GiB (92%)
    Default                     : Yes
    Forced                      : No
    
    Audio #1
    ID                          : 2
    Format                      : MLP FBA
    Format/Info                 : Meridian Lossless Packing FBA
    Commercial name             : Dolby TrueHD
    Codec ID                    : A_TRUEHD
    Duration                    : 23 min 56 s
    Bit rate mode               : Variable
    Bit rate                    : 1 384 kb/s
    Maximum bit rate            : 2 880 kb/s
    Channel(s)                  : 6 channels
    Channel layout              : L R C LFE Ls Rs
    Sampling rate               : 48.0 kHz
    Frame rate                  : 1 200.000 FPS (40 SPF)
    Compression mode            : Lossless
    Stream size                 : 237 MiB (4%)
    Title                       : Surround 5.1
    Language                    : English
    Default                     : Yes
    Forced                      : No
    
    Audio #2
    ID                          : 3
    Format                      : AC-3
    Format/Info                 : Audio Coding 3
    Commercial name             : Dolby Digital
    Codec ID                    : A_AC3
    Duration                    : 23 min 56 s
    Bit rate mode               : Constant
    Bit rate                    : 448 kb/s
    Channel(s)                  : 6 channels
    Channel layout              : L R C LFE Ls Rs
    Sampling rate               : 48.0 kHz
    Frame rate                  : 31.250 FPS (1536 SPF)
    Compression mode            : Lossy
    Delay relative to video     : 24 ms
    Stream size                 : 76.7 MiB (1%)
    Title                       : Surround 5.1
    Language                    : English
    Service kind                : Complete Main
    Default                     : No
    Forced                      : No
    
    Audio #3
    ID                          : 4
    Format                      : MLP FBA
    Format/Info                 : Meridian Lossless Packing FBA
    Commercial name             : Dolby TrueHD
    Codec ID                    : A_TRUEHD
    Duration                    : 23 min 56 s
    Bit rate mode               : Variable
    Bit rate                    : 1 107 kb/s
    Maximum bit rate            : 1 653 kb/s
    Channel(s)                  : 2 channels
    Channel layout              : L R
    Sampling rate               : 48.0 kHz
    Frame rate                  : 1 200.000 FPS (40 SPF)
    Compression mode            : Lossless
    Stream size                 : 189 MiB (3%)
    Title                       : Stereo
    Language                    : Japanese
    Default                     : No
    Forced                      : No
    
    Audio #4
    ID                          : 5
    Format                      : AC-3
    Format/Info                 : Audio Coding 3
    Commercial name             : Dolby Digital
    Codec ID                    : A_AC3
    Duration                    : 23 min 56 s
    Bit rate mode               : Constant
    Bit rate                    : 192 kb/s
    Channel(s)                  : 2 channels
    Channel layout              : L R
    Sampling rate               : 48.0 kHz
    Frame rate                  : 31.250 FPS (1536 SPF)
    Compression mode            : Lossy
    Delay relative to video     : 24 ms
    Stream size                 : 32.9 MiB (0%)
    Title                       : Stereo
    Language                    : Japanese
    Service kind                : Complete Main
    Default                     : No
    Forced                      : No
    
    Text #1
    ID                          : 6
    Format                      : ASS
    Codec ID                    : S_TEXT/ASS
    Codec ID/Info               : Advanced Sub Station Alpha
    Duration                    : 23 min 6 s
    Bit rate                    : 7 659 b/s
    Count of elements           : 467
    Compression mode            : Lossless
    Stream size                 : 1.27 MiB (0%)
    Title                       : Signs [DDY]
    Language                    : English
    Default                     : No
    Forced                      : No
    
    Text #2
    ID                          : 7
    Format                      : PGS
    Muxing mode                 : zlib
    Codec ID                    : S_HDMV/PGS
    Codec ID/Info               : Picture based subtitle format used on BDs/HD-DVDs
    Duration                    : 23 min 40 s
    Bit rate                    : 47.2 kb/s
    Count of elements           : 686
    Stream size                 : 7.99 MiB (0%)
    Language                    : English
    Default                     : No
    Forced                      : No
    
    Text #3
    ID                          : 8
    Format                      : ASS
    Codec ID                    : S_TEXT/ASS
    Codec ID/Info               : Advanced Sub Station Alpha
    Duration                    : 23 min 48 s
    Bit rate                    : 137 b/s
    Count of elements           : 349
    Compression mode            : Lossless
    Stream size                 : 23.9 KiB (0%)
    Language                    : Vietnamese
    Default                     : Yes
    Forced                      : No
    
    Menu
    00:00:00.000                : en:Chapter 01
    00:00:35.952                : en:Chapter 02
    00:02:06.000                : en:Chapter 03
    00:16:34.994                : en:Chapter 04
    00:22:41.735                : en:Chapter 05
    00:23:41.002                : en:Chapter 06
    
    

    SCREENSHOT
    [​IMG]
    DOWNLOAD
     

Chia sẻ trang này