Bluray Ca Nhạc Mới Của TT Asia

Thảo luận trong 'Bluray nguyên gốc' bắt đầu bởi yeumaingannam, 7/5/18.

  1. nicolasphuong

    nicolasphuong Well-Known Member

    Tham gia ngày:
    14/7/10
    Bài viết:
    1,726
    Đã được cảm ơn:
    7,357
    Cùng nhu cầu với mấy bác trên... ủng hộ 1 vé ASIA 82... cho xin links tải nhé bro
     
  2. DONGDANANG

    DONGDANANG Active Member

    Tham gia ngày:
    17/1/13
    Bài viết:
    358
    Đã được cảm ơn:
    210
    Chuyện của những cây cầu bê tông rỗng nhưng nhìn vào vẫn là bê tông bác nhĩ ...
     
  3. tonny1234

    tonny1234 Well-Known Member

    Tham gia ngày:
    15/5/18
    Bài viết:
    992
    Đã được cảm ơn:
    23,098
    Giới tính:
    Nam
    cứ up đi bác, ai thích hàng fake thì down
     
  4. protri

    protri Well-Known Member

    Tham gia ngày:
    30/12/10
    Bài viết:
    531
    Đã được cảm ơn:
    8,827
    có menu và chapter chắc là hàng chuẩn rồi, lên đi bác!
     
  5. JeamsBond

    JeamsBond Active Member

    Tham gia ngày:
    25/3/13
    Bài viết:
    409
    Đã được cảm ơn:
    136
    Cụ share em nhờ với, tks cụ!
     
  6. yeumaingannam

    yeumaingannam Well-Known Member

    Tham gia ngày:
    31/12/10
    Bài viết:
    4,119
    Đã được cảm ơn:
    37,008
    Giới tính:
    Nam
    Nơi ở:
    Tây Phương
    bác cũng hay thật, bác nói ẩn ý em chẳng hiểu gì cà. em ngu lắm. em đang nói về sản phẩm điện tử bác bổ qua xây dựng cầu cống. hơi mệt à nha. bàn luận với bác kiểu này, chắc em phải uống thuốc đau chân quá.
     
  7. yeumaingannam

    yeumaingannam Well-Known Member

    Tham gia ngày:
    31/12/10
    Bài viết:
    4,119
    Đã được cảm ơn:
    37,008
    Giới tính:
    Nam
    Nơi ở:
    Tây Phương
    bác xúi dại em không hè !!!!! em suy đoán, chắc bác làm giám đốc của hãng xuất nhập cảng con cầy tơ quá. à, mà bác cho em hỏi, hàng fake là hàng thế nào vậy bác?????? em còn ngây thơ lắm hỏng hiểu gì cả. hahahaha.. chắc hàng fake là hàng để dụ người non nớt ngây thơ đó phải không bác ???? thằng nào mà làm hàng fake cũng tài tình thật, cám dổ để dụ người khác. ủa mà có lợi lộc gì vậy ta, hè, khổ thiệt, mấy cái thằng không làm hàng fake được để dụ kẻ khác, lại tức tửi mới chết chứ.
     
  8. yeumaingannam

    yeumaingannam Well-Known Member

    Tham gia ngày:
    31/12/10
    Bài viết:
    4,119
    Đã được cảm ơn:
    37,008
    Giới tính:
    Nam
    Nơi ở:
    Tây Phương
    bác coi trong cái diễn đàn này, các tay anh chị cả có ai có hàng Asia 82 Br Disc đâu???? chỉ có mình em dám hô hào là sẽ post cái Asia 82 Br disc ISO này, có cả chapters, menu, và copyright nữa. thì lấy đâu ra đây, Trung Tâm Asia lại không ra hàng Br, chẳng lẽ em làm được. mà cũng lạ. Asia 79, 80, 81, không có Br, mà giờ thì đây trên các diễn đàn khác thế mới lạ chư... khó hiểu...
     
  9. tonny1234

    tonny1234 Well-Known Member

    Tham gia ngày:
    15/5/18
    Bài viết:
    992
    Đã được cảm ơn:
    23,098
    Giới tính:
    Nam
    Ai cũng hiểu chỉ một người giã bộ không hiểu ;)
     
  10. yeumaingannam

    yeumaingannam Well-Known Member

    Tham gia ngày:
    31/12/10
    Bài viết:
    4,119
    Đã được cảm ơn:
    37,008
    Giới tính:
    Nam
    Nơi ở:
    Tây Phương
    em chịu thua, hỏng hiểu, ai hiểu kệ họ. để em post lên coi ai tức trào máu cho biết.

    ps: cái mạng chó ngáp này, upload từ sáng tới giờ được có nhiêu

    [​IMG]
     
    JeamsBond and nguyen74 like this.
  11. tonny1234

    tonny1234 Well-Known Member

    Tham gia ngày:
    15/5/18
    Bài viết:
    992
    Đã được cảm ơn:
    23,098
    Giới tính:
    Nam
    He he thì post đi chứ còn chờ gì nữa bày đặt màu mè ;)
     
  12. yeumaingannam

    yeumaingannam Well-Known Member

    Tham gia ngày:
    31/12/10
    Bài viết:
    4,119
    Đã được cảm ơn:
    37,008
    Giới tính:
    Nam
    Nơi ở:
    Tây Phương
    [​IMG]


    vui lòng cuộn xuống, link download posted trong topic phía dưới, cám ơn.
     
    Chỉnh sửa cuối: 8/8/18
    natal303, tien195, protri and 7 others like this.
  13. JeamsBond

    JeamsBond Active Member

    Tham gia ngày:
    25/3/13
    Bài viết:
    409
    Đã được cảm ơn:
    136
    Hóng link của cụ chủ!
     
  14. coc_xxx

    coc_xxx Active Member

    Tham gia ngày:
    13/9/09
    Bài viết:
    179
    Đã được cảm ơn:
    108
    Đắc tội với mấy chụy không ưa là số ít, có mà không post cho 500 anh em là đắc tội số nhiều đó....:mad:
     
  15. NTTung20013

    NTTung20013 Well-Known Member

    Tham gia ngày:
    5/12/17
    Bài viết:
    167
    Đã được cảm ơn:
    1,336
    Giới tính:
    Nam
    Hóng ASIA 82 Blr từng giờ.
     
  16. Đắc Trung

    Đắc Trung Well-Known Member

    Tham gia ngày:
    6/5/17
    Bài viết:
    640
    Đã được cảm ơn:
    1,041
    Cho mình xin Bluray Asia 82 với nhé. Cám ơn nhiều lắm.


     
  17. yeumaingannam

    yeumaingannam Well-Known Member

    Tham gia ngày:
    31/12/10
    Bài viết:
    4,119
    Đã được cảm ơn:
    37,008
    Giới tính:
    Nam
    Nơi ở:
    Tây Phương
    [​IMG]

    Disc Info.


    General
    ID : 1 (0x1)
    Format : BDAV
    Format/Info : Blu-ray Video
    File size : 22.3 GiB
    Duration : 2 h 42 min
    Overall bit rate mode : Variable
    Overall bit rate : 18.9 Mb/s
    Maximum Overall bit rate : 32.7 Mb/s

    Video
    ID : 4113 (0x1011)
    Menu ID : 1 (0x1)
    Format : AVC
    Format/Info : Advanced Video Codec
    Format profile : [email protected]
    Format settings : CABAC / 4 Ref Frames
    Format settings, CABAC : Yes
    Format settings, ReFrames : 4 frames
    Codec ID : 27
    Duration : 2 h 42 min
    Bit rate mode : Variable
    Bit rate : 16.2 Mb/s
    Maximum bit rate : 30.0 Mb/s
    Width : 1 920 pixels
    Height : 1 080 pixels
    Display aspect ratio : 16:9
    Frame rate : 29.970 (30000/1001) FPS
    Standard : Component
    Color space : YUV
    Chroma subsampling : 4:2:0
    Bit depth : 8 bits
    Scan type : Progressive
    Bits/(Pixel*Frame) : 0.261
    Stream size : 18.9 GiB (88%)
    Writing library : x264 core 148
    Encoding settings : cabac=1 / ref=4 / deblock=1:0:0 / analyse=0x3:0x113 / me=hex / subme=7 / psy=1 / psy_rd=1.00:0.00 / mixed_ref=1 / me_range=16 / chroma_me=1 / trellis=1 / 8x8dct=1 / cqm=1 / deadzone=21,11 / fast_pskip=1 / chroma_qp_offset=-2 / threads=12 / lookahead_threads=2 / sliced_threads=0 / slices=4 / nr=0 / decimate=1 / interlaced=fake / minigop=1 / stitchable=1 / constrained_intra=0 / bframes=3 / b_pyramid=0 / b_adapt=1 / b_bias=0 / direct=1 / weightb=1 / open_gop=1 / weightp=1 / keyint=30 / keyint_min=1 / scenecut=40 / intra_refresh=0 / rc_lookahead=30 / rc=abr / mbtree=1 / bitrate=16225 / ratetol=1.0 / qcomp=0.60 / qpmin=3 / qpmax=51 / qpstep=4 / vbv_maxrate=30000 / vbv_bufsize=30000 / nal_hrd=vbr / filler=0 / ip_ratio=1.40 / aq=1:1.00
    Color range : Limited
    Color primaries : BT.709
    Transfer characteristics : BT.709
    Matrix coefficients : BT.709

    Audio
    ID : 4352 (0x1100)
    Menu ID : 1 (0x1)
    Format : PCM
    Format settings : Big / Signed
    Muxing mode : Blu-ray
    Codec ID : 128
    Duration : 2 h 42 min
    Bit rate mode : Constant
    Bit rate : 1 536 kb/s
    Channel(s) : 2 channels
    Channel positions : Front: L R
    Sampling rate : 48.0 kHz
    Bit depth : 16 bits
    Stream size : 1.74 GiB (8%)

    cân nhắc trước khi download, vì hàng Br Disc Asia 82, không có trên thị trường, ai cần thì down.
    vì số lượng download khá nhiều (trên 500 clicks) cho nên em không thể không post, mặc dù có 1 số ít không thích. cũng đành đắc tội với mấy bạn không ưa vậy.

    Asia 82 - Tinh Khuc Pham Dinh Chuong. 22.3 GB.iso => Remux to Br Disc 25GB

    có chapters, menu đầy đủ. hình ảnh âm thanh rỏ đẹp. + bonus video hậu trường

    Cám ơn các bạn đã ủng hộ. Chúc các bạn coi ca nhạc vui vẽ.
    Link Download bên dưới.

    Asia 82 - Tinh Khuc Pham Dinh Chuong. Br 22.3 GB.iso
    Link tải phim
    Nhấn nút Cảm ơn (dưới chân bài) để thấy link!

     
  18. slims1-

    slims1- Well-Known Member

    Tham gia ngày:
    21/12/11
    Bài viết:
    399
    Đã được cảm ơn:
    271
    Giới tính:
    Nam
    cảm ơn các bạn nhiều ... vì ở VN nên việc mua bản góc khó khăn ... chúc các bác luôn vui khỏe
     
  19. vanninhthuan119

    vanninhthuan119 Well-Known Member

    Tham gia ngày:
    15/4/13
    Bài viết:
    245
    Đã được cảm ơn:
    120
    Cảm ơn bạn, tối về kéo ngay
     
  20. tonny1234

    tonny1234 Well-Known Member

    Tham gia ngày:
    15/5/18
    Bài viết:
    992
    Đã được cảm ơn:
    23,098
    Giới tính:
    Nam
    O dau cung vay có phát hành đâu mà mua
     
    chinhto cảm ơn bài này.

Chia sẻ trang này