[Fshare] [ 4K|Phiêu Lưu|Ấn Độ ] Bhool Bhulaiyaa 2 2022 2160p NF WEB-DL DD+ 5.1 HEVC-Telly -Mê Cung 2

Thảo luận trong 'WEB-DL, HDTV 4K' bắt đầu bởi canodinh, 8/10/22.

  1. canodinh

    canodinh Uploader

    Tham gia ngày:
    10/9/11
    Bài viết:
    21,791
    Đã được cảm ơn:
    262,523
    Bhool Bhulaiyaa 2 2022 2160p NF WEB-DL DD+ 5.1 HEVC-Telly

    Sub việt mux sẵn

    Mê Cung 2
    [​IMG]


    Mê Cung 2 - Bhool Bhulaiyaa 2 (2022) Bắt đầu từ một cuộc gặp định mệnh giữa hai con người Ruhaan và Reet, rồi họ cùng nhau đến thăm quê của Reet tại Rajasthan. Lúc này hai người họ vô tình mở ra một bí mật cũ điều đáng lý họ không được phép làm, mọi địa ngục từ đó cũng bị phá vỡ và Reet thì bị chiếm hữu bởi phù thủy quyền năng Manjulika. Reet sẽ phải làm gì để thoát khỏi Manjulika?


    General
    Unique ID : 208192430196022917562645989858562551552 (0x9CA0674F1D11B14881F87F8B72C82F00)
    Complete name : Bhool.Bhulaiyaa.2.2022.2160p.NF.WEB-DL.DDP5.1.HEVC-Telly.mkv
    Format : Matroska
    Format version : Version 4
    File size : 17.3 GiB
    Duration : 2 h 21 min
    Overall bit rate : 17.4 Mb/s
    Movie name : Telly
    Encoded date : UTC 2022-07-13 13:46:58
    Writing application : mkvmerge v63.0.0 ('Everything') 64-bit
    Writing library : libebml v1.4.2 + libmatroska v1.6.4

    Video
    ID : 1
    Format : HEVC
    Format/Info : High Efficiency Video Coding
    Format profile : Main 10@L5@Main
    Codec ID : V_MPEGH/ISO/HEVC
    Duration : 2 h 21 min
    Bit rate : 16.8 Mb/s
    Width : 3 840 pixels
    Height : 2 160 pixels
    Display aspect ratio : 16:9
    Frame rate mode : Constant
    Frame rate : 24.000 FPS
    Color space : YUV
    Chroma subsampling : 4:2:0
    Bit depth : 10 bits
    Bits/(Pixel*Frame) : 0.084
    Stream size : 16.6 GiB (96%)
    Default : Yes
    Forced : No
    Color range : Limited
    Color primaries : BT.709
    Transfer characteristics : BT.709
    Matrix coefficients : BT.709

    Audio
    ID : 2
    Format : E-AC-3
    Format/Info : Enhanced AC-3
    Commercial name : Dolby Digital Plus
    Codec ID : A_EAC3
    Duration : 2 h 21 min
    Bit rate mode : Constant
    Bit rate : 640 kb/s
    Channel(s) : 6 channels
    Channel layout : L R C LFE Ls Rs
    Sampling rate : 48.0 kHz
    Frame rate : 31.250 FPS (1536 SPF)
    Compression mode : Lossy
    Stream size : 650 MiB (4%)
    Title : Hindi
    Language : Hindi
    Service kind : Complete Main
    Default : Yes
    Forced : No

    Text #1
    ID : 3
    Format : UTF-8
    Codec ID : S_TEXT/UTF8
    Codec ID/Info : UTF-8 Plain Text
    Duration : 2 h 11 min
    Bit rate : 56 b/s
    Count of elements : 1950
    Stream size : 54.2 KiB (0%)
    Title : English
    Language : English
    Default : No
    Forced : No

    Text #2
    ID : 4
    Format : UTF-8
    Codec ID : S_TEXT/UTF8
    Codec ID/Info : UTF-8 Plain Text
    Duration : 2 h 19 min
    Bit rate : 49 b/s
    Count of elements : 1954
    Stream size : 50.7 KiB (0%)
    Title : Chinese Simplified
    Language : Chinese
    Default : No
    Forced : No

    Text #3
    ID : 5
    Format : UTF-8
    Codec ID : S_TEXT/UTF8
    Codec ID/Info : UTF-8 Plain Text
    Duration : 2 h 19 min
    Bit rate : 50 b/s
    Count of elements : 1954
    Stream size : 51.9 KiB (0%)
    Title : Chinese Traditional
    Language : Chinese
    Default : No
    Forced : No

    Text #4
    ID : 6
    Format : UTF-8
    Codec ID : S_TEXT/UTF8
    Codec ID/Info : UTF-8 Plain Text
    Duration : 2 h 19 min
    Bit rate : 58 b/s
    Count of elements : 1959
    Stream size : 59.5 KiB (0%)
    Title : French
    Language : French
    Default : No
    Forced : No

    Text #5
    ID : 7
    Format : UTF-8
    Codec ID : S_TEXT/UTF8
    Codec ID/Info : UTF-8 Plain Text
    Duration : 2 h 19 min
    Bit rate : 57 b/s
    Count of elements : 1955
    Stream size : 58.9 KiB (0%)
    Title : German
    Language : German
    Default : No
    Forced : No

    Text #6
    ID : 8
    Format : UTF-8
    Codec ID : S_TEXT/UTF8
    Codec ID/Info : UTF-8 Plain Text
    Duration : 2 h 14 min
    Bit rate : 138 b/s
    Count of elements : 2074
    Stream size : 137 KiB (0%)
    Title : Hindi
    Language : Hindi
    Default : No
    Forced : No

    Text #7
    ID : 9
    Format : UTF-8
    Codec ID : S_TEXT/UTF8
    Codec ID/Info : UTF-8 Plain Text
    Duration : 2 h 6 min
    Bit rate : 2 b/s
    Count of elements : 83
    Stream size : 2.04 KiB (0%)
    Title : Hindi (Forced)
    Language : Hindi
    Default : No
    Forced : Yes

    Text #8
    ID : 10
    Format : UTF-8
    Codec ID : S_TEXT/UTF8
    Codec ID/Info : UTF-8 Plain Text
    Duration : 2 h 19 min
    Bit rate : 54 b/s
    Count of elements : 1962
    Stream size : 55.2 KiB (0%)
    Title : Spanish
    Language : Vietnamese
    Default : No
    Forced : No


    [​IMG]

    [​IMG]

    [​IMG]

    [​IMG]

    [​IMG]

    [​IMG]

    [​IMG]

    Fshare ~ 17.31GB

    Nhấn nút Cảm ơn (dưới chân bài) để thấy link!


    4Share

    Nhấn nút Cảm ơn (dưới chân bài) để thấy link!


    Sub Việt

    https://subscene.com/subtitles/bhool-bhulaiyaa-2

    Tổng hợp phim 18+

    Link topic https://hdvietnam.org/threads/mutil...ng-nhat-ban-au-my-cap-nhat-hang-ngay.1796232/

    Nhấn nút Cảm ơn (dưới chân bài) để thấy link!


    Tổng hợp phim full Menu (Thuyết minh+Sub Việt) bluray (nethd.org)

    Nhấn nút Cảm ơn (dưới chân bài) để thấy link!


    Tổng hợp phim bộ Lồng tiếng, thuyết minh, sub việt

    Nhấn nút Cảm ơn (dưới chân bài) để thấy link!


    Tổng hợp phim hàng ngày

    Link topic https://hdvietnam.org/threads/tong-hop-phim-bluray-remux-iso-cap-nhat-hang-ngay.1796055/

    Nhấn nút Cảm ơn (dưới chân bài) để thấy link!


    Tổng hợp phim bluray Remux ISO 4K



    mhd

    720p

    1080p

    Thuyết minh

    Remux

    ISO
     
    ndhiep, tiheo333, pterpm and 19 others like this.
  2. nhocdancerlc

    nhocdancerlc Active Member

    Tham gia ngày:
    20/1/21
    Bài viết:
    309
    Đã được cảm ơn:
    87
    Giới tính:
    Nam
    bác cho e xin file sub rời với
     
  3. amsempron

    amsempron Member

    Tham gia ngày:
    26/12/11
    Bài viết:
    60
    Đã được cảm ơn:
    20
    Nghề nghiệp:
    IT
    Nơi ở:
    Việt Nam
    reup giup minh a
     

Chia sẻ trang này