[4K HDR] Avengers Endgame 2019 UHD BluRay Remux 2160p HEVC Atmos 7.1-MTeam

Thảo luận trong 'Bluray Remux 4K' bắt đầu bởi Anh YAM, 2/8/19.

  1. Anh YAM

    Anh YAM Uploader

    Tham gia ngày:
    5/1/19
    Bài viết:
    13,871
    Đã được cảm ơn:
    239,713
    Giới tính:
    Nam
    Avengers Endgame 2019 UHD BluRay Remux 2160p HEVC Atmos 7.1-MTeam

    Size: 51.98 GB Type: Movie Remux
    Codec: H.265 Standard: 4K Processing: US/EU Team: MTeam
    Audio commentary lấy từ bản 1080p: 导评音轨来自1080p源


    [​IMG]

    Year: 2019

    [​IMG] 8.7/10
    Votes: 485463
    Runtime: 181 mins
    Language: English
    Country: USA
    All Genres: Action, Adventure, Sci-Fi
    Director: Anthony Russo Joe Russo

    Plot: After the devastating events of Avengers: Infinity War (2018), the universe is in ruins. With the help of remaining allies, the Avengers assemble once more in order to reverse Thanos' actions and restore balance to the universe.

    Cast:
    Robert Downey Jr. as Tony Stark / Iron Man
    Chris Evans as Steve Rogers / Captain America
    Mark Ruffalo as Bruce Banner / Hulk
    Chris Hemsworth as Thor
    Scarlett Johansson as Natasha Romanoff / Black Widow
    Jeremy Renner as Clint Barton / Hawkeye

    -----------------------------------------------------------
    Media Info

    General
    Unique ID : 98350338687419532376348853849724435078 (0x49FD96134AC16CB3D3B1DF4079BA3A86)
    Format : Matroska
    Format version : Version 4
    File size : 52.0 GiB
    Duration : 3 h 1 min
    Overall bit rate mode : Variable
    Overall bit rate : 41.1 Mb/s
    Movie name : Avengers: Endgame (2019)
    Encoded date : UTC 2019-08-02 01:48:37
    Writing application : mkvmerge v33.1.0 ('Primrose') 64-bit
    Writing library : libebml v1.3.7 + libmatroska v1.5.0
    Released on : tp.m-team.cc (M-Team)
    Remuxer : Nginx @ M-Team

    Video
    ID : 1
    Format : HEVC
    Format/Info : High Efficiency Video Coding
    Format profile : Main [email protected]@High
    HDR format : SMPTE ST 2086, HDR10 compatible
    Codec ID : V_MPEGH/ISO/HEVC
    Duration : 3 h 1 min
    Bit rate : 36.0 Mb/s
    Width : 3 840 pixels
    Height : 2 160 pixels
    Display aspect ratio : 16:9
    Frame rate mode : Constant
    Frame rate : 23.976 (24000/1001) FPS
    Color space : YUV
    Chroma subsampling : 4:2:0 (Type 2)
    Bit depth : 10 bits
    Bits/(Pixel*Frame) : 0.181
    Stream size : 45.6 GiB (88%)
    Title : MPEG-H HEVC Video / 36253 kbps / 2160p / 23.976 fps / 16:9 / Main 10 @ Level 5.1 @ High / 4:2:0 / 10 bits / HDR10 / BT.2020
    Writing library : ATEME Titan File 3.9.0 (4.9.0.0)
    Language : English
    Default : Yes
    Forced : No
    Color range : Limited
    Color primaries : BT.2020
    Transfer characteristics : PQ
    Matrix coefficients : BT.2020 non-constant
    Mastering display color primaries : Display P3
    Mastering display luminance : min: 0.0050 cd/m2, max: 4000 cd/m2

    Audio #1
    ID : 2
    Format : MLP FBA 16-ch
    Format/Info : Meridian Lossless Packing FBA with 16-channel presentation
    Commercial name : Dolby TrueHD with Dolby Atmos
    Codec ID : A_TRUEHD
    Duration : 3 h 1 min
    Bit rate mode : Variable
    Bit rate : 4 777 kb/s
    Maximum bit rate : 8 430 kb/s
    Channel(s) : 8 channels
    Channel layout : L R C LFE Ls Rs Lb Rb
    Sampling rate : 48.0 kHz
    Frame rate : 1 200.000 FPS (40 SPF)
    Compression mode : Lossless
    Stream size : 6.05 GiB (12%)
    Title : Dolby TrueHD/Atmos Audio / 7.1-Atmos / 48 kHz / 5417 kbps / 24-bit
    Language : English
    Default : Yes
    Forced : No
    Number of dynamic objects : 13
    Bed channel count : 1 channel
    Bed channel configuration : LFE

    Audio #2
    ID : 3
    Format : AC-3
    Format/Info : Audio Coding 3
    Commercial name : Dolby Digital
    Codec ID : A_AC3
    Duration : 3 h 1 min
    Bit rate mode : Constant
    Bit rate : 192 kb/s
    Channel(s) : 2 channels
    Channel layout : L R
    Sampling rate : 48.0 kHz
    Frame rate : 31.250 FPS (1536 SPF)
    Bit depth : 16 bits
    Compression mode : Lossy
    Stream size : 249 MiB (0%)
    Title : Audio commentary by directors Anthony and Joe Russo, and writers Christopher Markus & Stephen McFeely
    Language : English
    Service kind : Complete Main
    Default : No
    Forced : No

    Text #1
    ID : 4
    Format : PGS
    Muxing mode : zlib
    Codec ID : S_HDMV/PGS
    Codec ID/Info : Picture based subtitle format used on BDs/HD-DVDs
    Duration : 3 h 0 min
    Bit rate : 33.7 kb/s
    Count of elements : 5266
    Stream size : 43.6 MiB (0%)
    Language : English
    Default : No
    Forced : No

    Text #2
    ID : 5
    Format : PGS
    Muxing mode : zlib
    Codec ID : S_HDMV/PGS
    Codec ID/Info : Picture based subtitle format used on BDs/HD-DVDs
    Duration : 2 h 52 min
    Bit rate : 28.5 kb/s
    Count of elements : 4446
    Stream size : 35.1 MiB (0%)
    Language : French
    Default : No
    Forced : No

    Text #3
    ID : 6
    Format : PGS
    Muxing mode : zlib
    Codec ID : S_HDMV/PGS
    Codec ID/Info : Picture based subtitle format used on BDs/HD-DVDs
    Duration : 2 h 47 min
    Bit rate : 31.0 kb/s
    Count of elements : 4394
    Stream size : 37.3 MiB (0%)
    Language : Spanish
    Default : No
    Forced : No

    Menu
    00:00:00.000 : en:One Last Surprise
    00:08:06.069 : en:"To The Garden"
    00:20:01.867 : en:Five Years Later
    00:26:15.449 : en:"A Time Heist"
    00:36:57.340 : en:"Time Travel Do-Over"
    00:43:20.765 : en:"I Fixed It"
    00:48:44.338 : en:Assembling The Avengers
    00:57:36.912 : en:"Get The Stones, Get Them Back"
    01:07:12.779 : en:Rogue Transmission
    01:16:02.683 : en:New York, 2012
    01:26:25.597 : en:Asgard, 2013
    01:32:20.285 : en:Morag, 2014
    01:38:55.972 : en:New Jersey, 1970
    01:48:12.528 : en:Vormir, 2014
    01:57:27.082 : en:"I Was Made For This"
    02:05:00.410 : en:Thanos' Return
    02:15:06.598 : en:Avengers Assemble
    02:25:50.617 : en:One Of The 14,000,605
    02:34:38.102 : en:"Part Of The Journey Is The End"
    02:43:04.066 : en:"Clip All The Branches"
    02:49:05.510 : en:End Credits


    --------------------------------------------

    [​IMG]

    [​IMG]

    [​IMG]



    Trailer:


    Download:
    Nhấn nút Cảm ơn (dưới chân bài) để thấy link!
     
    Chỉnh sửa cuối: 28/8/19
  2. tuankbas

    tuankbas Uploader

    Tham gia ngày:
    12/5/19
    Bài viết:
    6,273
    Đã được cảm ơn:
    249,391
    Giới tính:
    Nam
    Nghề nghiệp:
    công chức
    Nơi ở:
    Thành phố Vinh- Nghệ An
    Ở Thái Lan chăng?
     
    Anh YAM cảm ơn bài này.
  3. Anh YAM

    Anh YAM Uploader

    Tham gia ngày:
    5/1/19
    Bài viết:
    13,871
    Đã được cảm ơn:
    239,713
    Giới tính:
    Nam
    Thái gì bác? Bên Trung quốc có ISO 4K rồi mà, bên BHD cũng có hàng REMUX FraMeSToR rồi
     
  4. hung4444

    hung4444 Member

    Tham gia ngày:
    26/2/10
    Bài viết:
    77
    Đã được cảm ơn:
    23
    thanks bác, Choe hỏi BHD là trang gì ạ?
     
  5. Anh YAM

    Anh YAM Uploader

    Tham gia ngày:
    5/1/19
    Bài viết:
    13,871
    Đã được cảm ơn:
    239,713
    Giới tính:
    Nam
    Beyondhd bác
     
  6. trantanloc4994

    trantanloc4994 Active Member

    Tham gia ngày:
    10/11/14
    Bài viết:
    73
    Đã được cảm ơn:
    201
    UPSCALE: 导评音轨来自1080p源 (NOT 4K REAL)
     
    Anh YAM cảm ơn bài này.
  7. leutrunghieu1993

    leutrunghieu1993 Well-Known Member

    Tham gia ngày:
    24/3/13
    Bài viết:
    1,891
    Đã được cảm ơn:
    41,600
    Nghề nghiệp:
    Director Animation
    Nơi ở:
    Hà Nội
    Mạng nhà bạn đẩy nhanh đấy :D
     
    Anh YAM cảm ơn bài này.
  8. Anh YAM

    Anh YAM Uploader

    Tham gia ngày:
    5/1/19
    Bài viết:
    13,871
    Đã được cảm ơn:
    239,713
    Giới tính:
    Nam
     
  9. Anh YAM

    Anh YAM Uploader

    Tham gia ngày:
    5/1/19
    Bài viết:
    13,871
    Đã được cảm ơn:
    239,713
    Giới tính:
    Nam
    giờ này chưa có 4K REAL ạ
     
  10. Anh YAM

    Anh YAM Uploader

    Tham gia ngày:
    5/1/19
    Bài viết:
    13,871
    Đã được cảm ơn:
    239,713
    Giới tính:
    Nam
    em sài VPS :D
     
    leutrunghieu1993 cảm ơn bài này.
  11. Anh YAM

    Anh YAM Uploader

    Tham gia ngày:
    5/1/19
    Bài viết:
    13,871
    Đã được cảm ơn:
    239,713
    Giới tính:
    Nam
    tầm 3 hôm nữa em up, giờ nó vẫn bị limit tải hơn 30 tiếng mới được 56%
    Avengers Endgame 2019 UHD BluRay 2160p HEVC Atmos TrueHD7.1-MTeam
     
  12. leutrunghieu1993

    leutrunghieu1993 Well-Known Member

    Tham gia ngày:
    24/3/13
    Bài viết:
    1,891
    Đã được cảm ơn:
    41,600
    Nghề nghiệp:
    Director Animation
    Nơi ở:
    Hà Nội
    Bạn chèn 2 code [ hide ] và [/ hide] vào link fshare để ẩn link nhé
     
    oilaychua and Anh YAM like this.
  13. leutrunghieu1993

    leutrunghieu1993 Well-Known Member

    Tham gia ngày:
    24/3/13
    Bài viết:
    1,891
    Đã được cảm ơn:
    41,600
    Nghề nghiệp:
    Director Animation
    Nơi ở:
    Hà Nội
    4k Mteam nó nhả speed có vẻ cao hơn chứ BD mới đc có 20%. cái này phụ thuộc vào thằng nguồn nó có nhả speed hay k chứ nó mà k nhả thì có kéo tới 3000h cũng thế à :D
     
    Anh YAM cảm ơn bài này.
  14. tuankbas

    tuankbas Uploader

    Tham gia ngày:
    12/5/19
    Bài viết:
    6,273
    Đã được cảm ơn:
    249,391
    Giới tính:
    Nam
    Nghề nghiệp:
    công chức
    Nơi ở:
    Thành phố Vinh- Nghệ An
    Bản iso nó nhấp như chuồn chuồn thấp nước.
     
  15. Anh YAM

    Anh YAM Uploader

    Tham gia ngày:
    5/1/19
    Bài viết:
    13,871
    Đã được cảm ơn:
    239,713
    Giới tính:
    Nam
    em chờ hàng xịn Internal HDbits từ các bác
     
    LuanPanda cảm ơn bài này.
  16. tuankbas

    tuankbas Uploader

    Tham gia ngày:
    12/5/19
    Bài viết:
    6,273
    Đã được cảm ơn:
    249,391
    Giới tính:
    Nam
    Nghề nghiệp:
    công chức
    Nơi ở:
    Thành phố Vinh- Nghệ An
    Thằng Thái Lan nó úp xong iso rồi
     
    Anh YAM cảm ơn bài này.
  17. Anh YAM

    Anh YAM Uploader

    Tham gia ngày:
    5/1/19
    Bài viết:
    13,871
    Đã được cảm ơn:
    239,713
    Giới tính:
    Nam
    ở chỗ nào vậy ạ?
     
  18. leutrunghieu1993

    leutrunghieu1993 Well-Known Member

    Tham gia ngày:
    24/3/13
    Bài viết:
    1,891
    Đã được cảm ơn:
    41,600
    Nghề nghiệp:
    Director Animation
    Nơi ở:
    Hà Nội
    Bạn có gần như đủ nguồn để kéo r mà :D thấy anh quý vs bạn bình luận ở group kodi r :) cứ giấu nghề làm j. Mạng ngon thì đẩy nhanh cho anh em khi ra hàng. Chứ mình mạng bập bõm lắm.
     
    Anh YAM cảm ơn bài này.
  19. Anh YAM

    Anh YAM Uploader

    Tham gia ngày:
    5/1/19
    Bài viết:
    13,871
    Đã được cảm ơn:
    239,713
    Giới tính:
    Nam
    em có mỗi M-TEAM, UHD, HD-T thôi nó ra thì em kéo chứ làm gì nhiều nguồn đâu bác
     
    leutrunghieu1993 cảm ơn bài này.
  20. leutrunghieu1993

    leutrunghieu1993 Well-Known Member

    Tham gia ngày:
    24/3/13
    Bài viết:
    1,891
    Đã được cảm ơn:
    41,600
    Nghề nghiệp:
    Director Animation
    Nơi ở:
    Hà Nội
    Thế là khá ổn và đủ r còn j. Rất ủng hộ các bạn tham gia diễn đàn này chia sẻ cho anh em diễn đàn. Vì mình cũng đam mê cái gọi là HD này. Nhưng chỉ muốn trao đổi 1 tí là thay vì số lượng đè chất lượng thì mình nghĩ bạn nên lập 1 form bài đầy đủ chi tiết và mạch lạc hơn cho nhưng mem mới, ít kinh nghiệm về IT hơn chúng ta.
    P/s : mình k có ý nói bài của bạn không chất lượng nha, sợ bị hiểu lầm lắm :D:D. Chỉ là nên có chút đầu tư vào bố cục các bài đăng thôi ^^
     
    upmitom, cothjenduong and Anh YAM like this.

Chia sẻ trang này