[MULTI] "Weird Al" Yankovic - Alpocalypse (2011) [FLAC]

Thảo luận trong 'Nhạc quốc tế' bắt đầu bởi [4ever]emQuynh, 28/6/11.

  1. [4ever]emQuynh

    [4ever]emQuynh Well-Known Member

    Tham gia ngày:
    11/11/09
    Bài viết:
    729
    Đã được cảm ơn:
    1,766
    Nghề nghiệp:
    học sinh ngoan ngoãn
    Nơi ở:
    VN
    "Weird Al" Yankovic - Alpocalypse (2011)
    [video=youtube;ss_BmTGv43M]http://www.youtube.com/watch?v=ss_BmTGv43M[/video]
    [​IMG]
    [​IMG]
    [​IMG]

    Mã:
    01. Perform This Way (2:54)
    02. CNR (3:21)
    03. TMZ (3:40)
    04. Skipper Dan (4:01)
    05. Polka Face (4:47)
    06. Craigslist (4:53)
    07. Party In The CIA (2:56)
    08. Ringtone (3:24)
    09. Another Tattoo (2:49)
    
    
    10. If That Isn't Love (3:48)
    11. Whatever You Like (3:41)
    12. Stop Forwarding That Crap To Me (5:42)
    [​IMG]
    Mã:
    Exact Audio Copy V0.99 prebeta 5 from 4. May 2009
    EAC extraction logfile from 21. June 2011, 15:19
    "Weird Al" Yankovic / Alpocalypse
    Used drive  : ATAPI   iHAS124   B   Adapter: 4  ID: 0
    Read mode               : Secure
    Utilize accurate stream : Yes
    Defeat audio cache      : Yes
    Make use of C2 pointers : No
    Read offset correction                      : 6
    Overread into Lead-In and Lead-Out          : No
    Fill up missing offset samples with silence : Yes
    Delete leading and trailing silent blocks   : No
    Null samples used in CRC calculations       : Yes
    Used interface                              : Native Win32 interface for Win NT & 2000
    Gap handling                                : Appended to previous track
    Used output format              : User Defined Encoder
    Selected bitrate                : 320 kBit/s
    Quality                         : High
    Add ID3 tag                     : No
    Command line compressor         : C:\Program Files (x86)\Exact Audio Copy\Flac\flac.exe
    Additional command line options : -V -8 -T "artist=%a" -T "title=%t" -T "album=%g" -T "date=%y" -T "tracknumber=%n" -T "genre=%m" %s 
    TOC of the extracted CD
         Track |   Start  |  Length  | Start sector | End sector 
        ---------------------------------------------------------
            1  |  0:00.00 |  2:54.64 |         0    |    13113   
            2  |  2:54.64 |  3:21.52 |     13114    |    28240   
            3  |  6:16.41 |  3:40.04 |     28241    |    44744   
            4  |  9:56.45 |  4:01.33 |     44745    |    62852   
            5  | 13:58.03 |  4:47.04 |     62853    |    84381   
            6  | 18:45.07 |  4:53.08 |     84382    |   106364   
            7  | 23:38.15 |  2:56.53 |    106365    |   119617   
            8  | 26:34.68 |  3:24.48 |    119618    |   134965   
            9  | 29:59.41 |  2:49.54 |    134966    |   147694   
           10  | 32:49.20 |  3:48.32 |    147695    |   164826   
           11  | 36:37.52 |  3:41.54 |    164827    |   181455   
           12  | 40:19.31 |  5:42.45 |    181456    |   207150   
    Track  1
         Filename C:\EACRips\'Weird Al' Yankovic\Alpocalypse - 2011 [FLAC]\01 - Perform This Way .wav
         Pre-gap length  0:00:02.00
         Peak level 98.8 %
         Track quality 100.0 %
         Test CRC 87CA2692
         Copy CRC 87CA2692
         Track not present in AccurateRip database
         Copy OK
    Track  2
         Filename C:\EACRips\'Weird Al' Yankovic\Alpocalypse - 2011 [FLAC]\02 - CNR .wav
         Peak level 98.8 %
         Track quality 100.0 %
         Test CRC B8104A9E
         Copy CRC B8104A9E
         Track not present in AccurateRip database
         Copy OK
    Track  3
         Filename C:\EACRips\'Weird Al' Yankovic\Alpocalypse - 2011 [FLAC]\03 - TMZ .wav
         Pre-gap length  0:00:00.15
         Peak level 98.8 %
         Track quality 100.0 %
         Test CRC 19151644
         Copy CRC 19151644
         Track not present in AccurateRip database
         Copy OK
    Track  4
         Filename C:\EACRips\'Weird Al' Yankovic\Alpocalypse - 2011 [FLAC]\04 - Skipper Dan .wav
         Pre-gap length  0:00:00.28
         Peak level 98.8 %
         Track quality 100.0 %
         Test CRC 3AAB518A
         Copy CRC 3AAB518A
         Track not present in AccurateRip database
         Copy OK
    Track  5
         Filename C:\EACRips\'Weird Al' Yankovic\Alpocalypse - 2011 [FLAC]\05 - Polka Face .wav
         Peak level 98.8 %
         Track quality 100.0 %
         Test CRC 007D3C84
         Copy CRC 007D3C84
         Track not present in AccurateRip database
         Copy OK
    Track  6
         Filename C:\EACRips\'Weird Al' Yankovic\Alpocalypse - 2011 [FLAC]\06 - Craigslist .wav
         Peak level 98.8 %
         Track quality 100.0 %
         Test CRC A6216172
         Copy CRC A6216172
         Track not present in AccurateRip database
         Copy OK
    Track  7
         Filename C:\EACRips\'Weird Al' Yankovic\Alpocalypse - 2011 [FLAC]\07 - Party In The CIA .wav
         Peak level 98.8 %
         Track quality 100.0 %
         Test CRC 720366BD
         Copy CRC 720366BD
         Track not present in AccurateRip database
         Copy OK
    Track  8
         Filename C:\EACRips\'Weird Al' Yankovic\Alpocalypse - 2011 [FLAC]\08 - Ringtone .wav
         Pre-gap length  0:00:00.01
         Peak level 98.8 %
         Track quality 100.0 %
         Test CRC E2A1F7A7
         Copy CRC E2A1F7A7
         Track not present in AccurateRip database
         Copy OK
    Track  9
         Filename C:\EACRips\'Weird Al' Yankovic\Alpocalypse - 2011 [FLAC]\09 - Another Tattoo .wav
         Pre-gap length  0:00:00.03
         Peak level 98.8 %
         Track quality 100.0 %
         Test CRC A4A1FACE
         Copy CRC A4A1FACE
         Track not present in AccurateRip database
         Copy OK
    Track 10
         Filename C:\EACRips\'Weird Al' Yankovic\Alpocalypse - 2011 [FLAC]\10 - If That Isn't Love .wav
         Peak level 98.8 %
         Track quality 100.0 %
         Test CRC 410DE232
         Copy CRC 410DE232
         Track not present in AccurateRip database
         Copy OK
    Track 11
         Filename C:\EACRips\'Weird Al' Yankovic\Alpocalypse - 2011 [FLAC]\11 - Whatever You Like .wav
         Pre-gap length  0:00:00.01
         Peak level 98.8 %
         Track quality 100.0 %
         Test CRC 0BE928DA
         Copy CRC 0BE928DA
         Track not present in AccurateRip database
         Copy OK
    Track 12
         Filename C:\EACRips\'Weird Al' Yankovic\Alpocalypse - 2011 [FLAC]\12 - Stop Forwarding That Crap To Me .wav
         Peak level 98.8 %
         Track quality 100.0 %
         Test CRC A68956EF
         Copy CRC A68956EF
         Track not present in AccurateRip database
         Copy OK
    None of the tracks are present in the AccurateRip database
    No errors occurred
    End of status report
    
    [​IMG]
    Nhấn nút Cảm ơn (dưới chân bài) để thấy link!
     
    samuraitruong cảm ơn bài này.
  2. tusontay

    tusontay Huyền Thoại

    Tham gia ngày:
    2/4/10
    Bài viết:
    13,307
    Đã được cảm ơn:
    335,921
    Giới tính:
    Nam
    Nghề nghiệp:
    7 Nghề
    Nơi ở:
    Viet Nam
    Ðề: "Weird Al" Yankovic - Alpocalypse (2011) [FLAC]

    Ko hiểu đây là loại j nữa, kéo về xem sao! :^o
     
    samuraitruong cảm ơn bài này.
  3. brittanyblake2010

    brittanyblake2010 New Member

    Tham gia ngày:
    23/9/11
    Bài viết:
    1
    Đã được cảm ơn:
    0
    gotta love weird al.

    i think he's coming to the state fair.

    thanks
     

Chia sẻ trang này