[Fshare] [Võ Thuật] Lý Tiểu Long (Trọn Bộ) Thuyết Minh + Lồng Tiếng - Bruce Lee (1971-1981) 10bit x265

Thảo luận trong 'Phim có audio Việt' bắt đầu bởi legendhaiduong, 17/1/23.

  1. legendhaiduong

    legendhaiduong Well-Known Member

    Tham gia ngày:
    30/3/13
    Bài viết:
    355
    Đã được cảm ơn:
    2,281
    Giới tính:
    Nam
    Lý Tiểu Long (Trọn Bộ) Bruce Lee (1971-1981) 1080p Bluray 10bit x265 Legend
    Thuyết Minh + Lồng Tiếng+ Việt Sub

    Do bộ sưu tập phim võ thuật của Lý Tiểu Long Remux của bác TVS nặng quá mà ổ cứng lại full nên mình tự encode sang H265 + chỉnh lại delay audio 1-2 tập
    Chia sẻ với các bác bộ sưu tập 6 phim:

    [​IMG]
    Complete name : Bruce Lee - Lý Tiểu Long (Collection)\01. The Big Boss 1971 Vie 1080P Bluray 10bit x265 TVS-Legend-QL22.mkv
    File size : 5.69 GiB
    Duration : 1 h 39 min
    Overall bit rate : 8 166 kb/s
    Movie name : The Big Boss 1971 ViE 1080p BluRay REMUX AVC DTS-HDMA 7.1-TVS
    Encoded date : UTC 2021-03-22 04:37:31

    Video
    Format : HEVC
    Format/Info : High Efficiency Video Coding
    Format profile : Main [email protected]@Main
    Codec ID : V_MPEGH/ISO/HEVC
    Duration : 1 h 39 min
    Bit rate : 5 267 kb/s
    Width : 1 920 pixels
    Height : 816 pixels
    Display aspect ratio : 2.35:1
    Frame rate mode : Constant
    Frame rate : 23.976 (24000/1001) FPS
    Bit depth : 10 bits
    Stream size : 3.67 GiB (65%)
    Writing library : x265 3.2.1+1-b5c86a64bbbe:[Windows][GCC 9.2.0][64 bit] 10bit

    Audio #1
    ID : 2
    Format : AC-3
    Format/Info : Audio Coding 3
    Commercial name : Dolby Digital
    Codec ID : A_AC3
    Duration : 1 h 39 min
    Bit rate mode : Constant
    Bit rate : 640 kb/s
    Channel(s) : 6 channels
    Channel layout : L R C LFE Ls Rs
    Sampling rate : 48.0 kHz
    Frame rate : 31.250 FPS (1536 SPF)
    Compression mode : Lossy
    Stream size : 456 MiB (8%)
    Title : Vietnamese | Thuyết Minh | TVS [Mux by Legend]
    Language : Vietnamese

    Audio #2
    ID : 3
    Format : AC-3
    Format/Info : Audio Coding 3
    Commercial name : Dolby Digital
    Codec ID : A_AC3
    Duration : 1 h 39 min
    Bit rate mode : Constant
    Bit rate : 448 kb/s
    Channel(s) : 2 channels
    Channel layout : L R
    Sampling rate : 48.0 kHz
    Frame rate : 31.250 FPS (1536 SPF)
    Compression mode : Lossy
    Stream size : 319 MiB (5%)
    Title : Vietnamese | Thuyết Minh | TVS [Mux by Legend]
    Language : Vietnamese

    Audio #3
    ID : 4
    Format : PCM
    Format settings : Little / Signed
    Codec ID : A_PCM/INT/LIT
    Duration : 1 h 39 min
    Bit rate mode : Constant
    Bit rate : 1 152 kb/s
    Channel(s) : 1 channel
    Sampling rate : 48.0 kHz
    Frame rate : 32.000 FPS (1500 SPF)
    Bit depth : 24 bits
    Delay relative to video : 46 ms
    Stream size : 822 MiB (14%)
    Language : English

    Audio #4
    ID : 5
    Format : AC-3
    Format/Info : Audio Coding 3
    Commercial name : Dolby Digital
    Format settings : Dolby Surround EX
    Codec ID : A_AC3
    Duration : 1 h 39 min
    Bit rate mode : Constant
    Bit rate : 640 kb/s
    Channel(s) : 6 channels
    Channel layout : L R C LFE Ls Rs
    Sampling rate : 48.0 kHz
    Frame rate : 31.250 FPS (1536 SPF)
    Compression mode : Lossy
    Stream size : 456 MiB (8%)
    Language : Chinese
    Text #1
    ID : 6
    Format : UTF-8
    Codec ID : S_TEXT/UTF8
    Codec ID/Info : UTF-8 Plain Text
    Duration : 1 h 38 min
    Bit rate : 35 b/s
    Count of elements : 746
    Stream size : 25.4 KiB (0%)
    Title : Vietnamese [Mux by Legend]
    Language : Vietnamese

    Text #2
    ID : 7
    Format : PGS
    Muxing mode : zlib
    Codec ID : S_HDMV/PGS
    Codec ID/Info : Picture based subtitle format used on BDs/HD-DVDs
    Duration : 1 h 37 min
    Bit rate : 17.4 kb/s
    Count of elements : 1492
    Stream size : 12.1 MiB (0%)
    Language : English

    Text #3
    ID : 8
    Format : PGS
    Muxing mode : zlib
    Codec ID : S_HDMV/PGS
    Codec ID/Info : Picture based subtitle format used on BDs/HD-DVDs
    Duration : 1 h 37 min
    Bit rate : 23.9 kb/s
    Count of elements : 1492
    Stream size : 16.7 MiB (0%)
    Language : Chinese

    Screenshots
    [​IMG]
    [​IMG]
    [​IMG]
    [​IMG]

    Link tải thuyết minh + lồng tiếng + Vietsub
    Nhấn nút Cảm ơn (dưới chân bài) để thấy link!

    Link phim H265 khác
    Nhấn nút Cảm ơn (dưới chân bài) để thấy link!

    Link bản remux của bác TVS
    Nhấn nút Cảm ơn (dưới chân bài) để thấy link!

    Link bản 10bit betai nặng hơn của bác hoaitrung
    Nhấn nút Cảm ơn (dưới chân bài) để thấy link!
     
    Chỉnh sửa cuối: 17/1/23

Chia sẻ trang này