[Fshare] [Vietsub|Action] Jujutsu Kaisen 1080p AMZN WEBDL DDP2.0 H.264-KQRM

Thảo luận trong 'Phim hoạt hình' bắt đầu bởi hutapa, 6/7/23.

  1. hutapa

    hutapa Well-Known Member

    Tham gia ngày:
    14/1/10
    Bài viết:
    2,462
    Đã được cảm ơn:
    19,218
    Giới tính:
    Nam
    Chú Thuật Hồi Chiến
    Jujutsu Kaisen
    S01|S02 1080p AMZN WEBDL DDP2.0 H.264-KQRM
    S02 1080p NF WEBDL DDP2.0 H.264-VARYG
    (Vietsub)

    Update: S02E23 (Full end)

    Update: S02 SP01-2


    https://www.imdb.com/title/tt12343534/

    Chú Thuật Hồi Chiến (Jujutsu Kaisen) theo chân Itadori Yuuji - cậu thiếu niên mang năng lực thể chất phi thường. Đang có cuộc sống bình thường của một học sinh cấp III, nhưng đến một ngày, vì cứu bạn bè bị đe doạ bởi “lời nguyền”, Itadori đã nuốt chú vật đặc cấp - “Ngón tay của Ryomen Sukuna” - và để cho nó trú ngụ trong linh hồn mình. Cùng chia sẻ thể xác với lời nguyền “Ryomen Sukuna”, Itadori dưới sự hướng dẫn của Chú thuật sư mạnh nhất - Gojo Satoru - đã nhập học trường chuyên ngành chống lại lời nguyền.


    [​IMG] [​IMG] [​IMG] [​IMG] [​IMG] [​IMG] [​IMG] [​IMG] [​IMG] [​IMG] [​IMG]



    Mã:
    General
    Format                      : Matroska
    Format version              : Version 4
    File size                   : 798 MiB
    Duration                    : 23 min 55 s
    Overall bit rate            : 4 662 kb/s
    Frame rate                  : 23.976 FPS
    Encoded date                : 2023-03-09 12:39:57 UTC
    Writing application         : mkvmerge v68.0.0 ('The Curtain') 64-bit
    Writing library             : libebml v1.4.2 + libmatroska v1.6.4
    Video
    ID                          : 1
    Format                      : AVC
    Format/Info                 : Advanced Video Codec
    Format profile              : High@L4
    Format settings             : CABAC / 4 Ref Frames
    Format settings, CABAC      : Yes
    Format settings, Reference  : 4 frames
    Codec ID                    : V_MPEG4/ISO/AVC
    Duration                    : 23 min 55 s
    Bit rate mode               : Constant
    Bit rate                    : 4 436 kb/s
    Nominal bit rate            : 10 000 kb/s
    Width                       : 1 920 pixels
    Height                      : 1 080 pixels
    Display aspect ratio        : 16:9
    Frame rate mode             : Constant
    Frame rate                  : 23.976 (24000/1001) FPS
    Color space                 : YUV
    Chroma subsampling          : 4:2:0
    Bit depth                   : 8 bits
    Scan type                   : Progressive
    Bits/(Pixel*Frame)          : 0.089
    Stream size                 : 759 MiB (95%)
    Default                     : Yes
    Forced                      : No
    Color range                 : Limited
    Color primaries             : BT.709
    Transfer characteristics    : BT.709
    Matrix coefficients         : BT.709
    Audio
    ID                          : 2
    Format                      : E-AC-3
    Format/Info                 : Enhanced AC-3
    Commercial name             : Dolby Digital Plus
    Codec ID                    : A_EAC3
    Duration                    : 23 min 55 s
    Bit rate mode               : Constant
    Bit rate                    : 224 kb/s
    Channel(s)                  : 2 channels
    Channel layout              : L R
    Sampling rate               : 48.0 kHz
    Frame rate                  : 31.250 FPS (1536 SPF)
    Compression mode            : Lossy
    Stream size                 : 38.3 MiB (5%)
    Title                       : 日本語
    Language                    : Japanese
    Service kind                : Complete Main
    Default                     : Yes
    Forced                      : No
    Text #1
    ID                          : 3
    Format                      : UTF-8
    Codec ID                    : S_TEXT/UTF8
    Codec ID/Info               : UTF-8 Plain Text
    Duration                    : 23 min 52 s
    Bit rate                    : 63 b/s
    Frame rate                  : 0.247 FPS
    Count of elements           : 354
    Stream size                 : 11.1 KiB (0%)
    Title                       : English
    Language                    : English
    Default                     : Yes
    Forced                      : No
    Text #2
    ID                          : 4
    Format                      : UTF-8
    Codec ID                    : S_TEXT/UTF8
    Codec ID/Info               : UTF-8 Plain Text
    Duration                    : 23 min 52 s
    Bit rate                    : 59 b/s
    Frame rate                  : 0.250 FPS
    Count of elements           : 358
    Stream size                 : 10.4 KiB (0%)
    Title                       : Bahasa Melayu
    Language                    : Malay
    Default                     : Yes
    Forced                      : No
    Text #3
    ID                          : 5
    Format                      : UTF-8
    Codec ID                    : S_TEXT/UTF8
    Codec ID/Info               : UTF-8 Plain Text
    Duration                    : 23 min 52 s
    Bit rate                    : 75 b/s
    Frame rate                  : 0.292 FPS
    Count of elements           : 419
    Stream size                 : 13.2 KiB (0%)
    Title                       : Indonesia
    Language                    : Indonesian
    Default                     : Yes
    Forced                      : No
    Text #4
    ID                          : 6
    Format                      : UTF-8
    Codec ID                    : S_TEXT/UTF8
    Codec ID/Info               : UTF-8 Plain Text
    Duration                    : 23 min 52 s
    Bit rate                    : 94 b/s
    Frame rate                  : 0.260 FPS
    Count of elements           : 372
    Stream size                 : 16.5 KiB (0%)
    Title                       : Tiếng Việt
    Language                    : Vietnamese
    Default                     : Yes
    Forced                      : No
    Text #5
    ID                          : 7
    Format                      : UTF-8
    Codec ID                    : S_TEXT/UTF8
    Codec ID/Info               : UTF-8 Plain Text
    Duration                    : 23 min 40 s
    Bit rate                    : 156 b/s
    Frame rate                  : 0.260 FPS
    Count of elements           : 370
    Stream size                 : 27.2 KiB (0%)
    Title                       : ไทย
    Language                    : Thai
    Default                     : Yes
    Forced                      : No
    



    #Link die, comment hoặc inbox mình reup.
     
    Chỉnh sửa cuối: 30/12/23
  2. hutapa

    hutapa Well-Known Member

    Tham gia ngày:
    14/1/10
    Bài viết:
    2,462
    Đã được cảm ơn:
    19,218
    Giới tính:
    Nam
    *Update:

    Jujutsu Kaisen

    S02 1080p NF WEBDL DDP2.0 H.264-VARYG

    (Vietsub)



    [​IMG]




    #Link die, comment hoặc inbox mình reup.
     
    Chỉnh sửa cuối: 20/7/23
  3. hutapa

    hutapa Well-Known Member

    Tham gia ngày:
    14/1/10
    Bài viết:
    2,462
    Đã được cảm ơn:
    19,218
    Giới tính:
    Nam
    *Update:

    Jujutsu Kaisen

    S02 1080p AMZN WEBDL DDP2.0 H.264-KQRM
    (Vietsub)



    [​IMG]




    #Link die, comment hoặc inbox mình reup.
     
    Chỉnh sửa cuối: 20/7/23
  4. hutapa

    hutapa Well-Known Member

    Tham gia ngày:
    14/1/10
    Bài viết:
    2,462
    Đã được cảm ơn:
    19,218
    Giới tính:
    Nam
    *Update: S02E02
     
    Chỉnh sửa cuối: 30/9/23
    DAD.SABOO cảm ơn bài này.
  5. hutapa

    hutapa Well-Known Member

    Tham gia ngày:
    14/1/10
    Bài viết:
    2,462
    Đã được cảm ơn:
    19,218
    Giới tính:
    Nam
    * Update: S02E03
     
    Chỉnh sửa cuối: 30/9/23
  6. hutapa

    hutapa Well-Known Member

    Tham gia ngày:
    14/1/10
    Bài viết:
    2,462
    Đã được cảm ơn:
    19,218
    Giới tính:
    Nam
    *Update: S02E04
     
  7. hutapa

    hutapa Well-Known Member

    Tham gia ngày:
    14/1/10
    Bài viết:
    2,462
    Đã được cảm ơn:
    19,218
    Giới tính:
    Nam
    *Update: S02E05
     
  8. hutapa

    hutapa Well-Known Member

    Tham gia ngày:
    14/1/10
    Bài viết:
    2,462
    Đã được cảm ơn:
    19,218
    Giới tính:
    Nam
    *Update: S02SP01-2
     
  9. hutapa

    hutapa Well-Known Member

    Tham gia ngày:
    14/1/10
    Bài viết:
    2,462
    Đã được cảm ơn:
    19,218
    Giới tính:
    Nam
    *Update: S02E06
     
  10. hutapa

    hutapa Well-Known Member

    Tham gia ngày:
    14/1/10
    Bài viết:
    2,462
    Đã được cảm ơn:
    19,218
    Giới tính:
    Nam
    *Update: S02E07
     
  11. hutapa

    hutapa Well-Known Member

    Tham gia ngày:
    14/1/10
    Bài viết:
    2,462
    Đã được cảm ơn:
    19,218
    Giới tính:
    Nam
    *Update: S02E01-07 AMZN
     
  12. hutapa

    hutapa Well-Known Member

    Tham gia ngày:
    14/1/10
    Bài viết:
    2,462
    Đã được cảm ơn:
    19,218
    Giới tính:
    Nam
    *Update: S02E08
     
    Nerokg cảm ơn bài này.
  13. hutapa

    hutapa Well-Known Member

    Tham gia ngày:
    14/1/10
    Bài viết:
    2,462
    Đã được cảm ơn:
    19,218
    Giới tính:
    Nam
    *Update S02E09
     
    821835 cảm ơn bài này.
  14. hutapa

    hutapa Well-Known Member

    Tham gia ngày:
    14/1/10
    Bài viết:
    2,462
    Đã được cảm ơn:
    19,218
    Giới tính:
    Nam
    *Update: S02E10
     
  15. hutapa

    hutapa Well-Known Member

    Tham gia ngày:
    14/1/10
    Bài viết:
    2,462
    Đã được cảm ơn:
    19,218
    Giới tính:
    Nam
    *Update: S02E11
     
  16. hutapa

    hutapa Well-Known Member

    Tham gia ngày:
    14/1/10
    Bài viết:
    2,462
    Đã được cảm ơn:
    19,218
    Giới tính:
    Nam
    *Update: S02E12
     
  17. hutapa

    hutapa Well-Known Member

    Tham gia ngày:
    14/1/10
    Bài viết:
    2,462
    Đã được cảm ơn:
    19,218
    Giới tính:
    Nam
    *Update: S02E13
     
  18. hutapa

    hutapa Well-Known Member

    Tham gia ngày:
    14/1/10
    Bài viết:
    2,462
    Đã được cảm ơn:
    19,218
    Giới tính:
    Nam
    *Update: S02E14
     
  19. hutapa

    hutapa Well-Known Member

    Tham gia ngày:
    14/1/10
    Bài viết:
    2,462
    Đã được cảm ơn:
    19,218
    Giới tính:
    Nam
    Update: S02E15
     
  20. Ân Snyder

    Ân Snyder Well-Known Member

    Tham gia ngày:
    15/9/21
    Bài viết:
    796
    Đã được cảm ơn:
    381
    Giới tính:
    Nam
    AMZ thường có bản lồng tiếng, bộ này có không nhỉ?
     

Chia sẻ trang này