[Fshare] [Vietsub|Action] Demon Slayer Kimetsu no Yaiba 1080p AMZN WEBDL DDP2.0 H.264-KQRM

Thảo luận trong 'Phim hoạt hình' bắt đầu bởi hutapa, 8/7/23.

  1. hutapa

    hutapa Well-Known Member

    Tham gia ngày:
    14/1/10
    Bài viết:
    2,547
    Đã được cảm ơn:
    20,349
    Giới tính:
    Nam
    Thanh Gươm Diệt Quỷ
    Demon Slayer Kimetsu no Yaiba
    S01|S02|S03|S04 1080p AMZN WEBDL DDP2.0 H.264-KQRM
    (Vietsub)

    https://www.imdb.com/title/tt9335498/


    Từ thuở xa xưa, có nhiều tin đồn về việc loài quỷ ăn thịt người ẩn nấp trong rừng. Vì thế, người dân trong những làng bên cạnh không bao giờ dám ra ngoài vào ban đêm.
    Truyền thuyết kể rằng có những Thợ Săn Quỷ luôn ra ngoài vào ban đêm để săn lùng những con quỷ khát máu này. Đối với Kamado Tanjirou, những tin đồn này mau chóng trở thành hiện thực nghiệt ngã đối với cậu. Kể từ khi cha qua đời, cậu đã tự mình nuôi sống cả gia đình bằng nghề bán than. Dù nghèo khó nhưng họ luôn cảm thấy hạnh phúc.
    Tưởng chừng hạnh phúc sẽ luôn theo gia đình cậu mãi mãi, nhưng bi kịch ập đến, cuộc sống cậu thay đổi sau khi cả gia đình cậu bị quỷ sát hại. Người sống sót duy nhất là em gái cậu, Nezuko, đã bị biến thành một con quỷ. Tuy nhiên, kỳ diệu thay, Nezuko vẫn giữ được cảm xúc và suy nghĩ như một con người. Câu chuyện là cuộc hành trình của Tanjirou cùng em gái mình truy tìm con quỷ đã giết hại gia đình mình đồng thời đưa em gái của cậu trở lại thành người.



    [​IMG] [​IMG] [​IMG] [​IMG] [​IMG] [​IMG] [​IMG] [​IMG] [​IMG] [​IMG] [​IMG] [​IMG] [​IMG]




    Mã:
    General
    Format                      : Matroska
    Format version              : Version 4
    File size                   : 1.17 GiB
    Duration                    : 23 min 39 s
    Overall bit rate            : 7 068 kb/s
    Frame rate                  : 23.976 FPS
    Encoded date                : 2023-04-09 09:56:53 UTC
    Writing application         : mkvmerge v75.0.0 ('Goliath') 64-bit
    Writing library             : libebml v1.4.4 + libmatroska v1.7.1
    Video
    ID                          : 1
    Format                      : AVC
    Format/Info                 : Advanced Video Codec
    Format profile              : High@L4
    Format settings             : CABAC / 4 Ref Frames
    Format settings, CABAC      : Yes
    Format settings, Reference  : 4 frames
    Codec ID                    : V_MPEG4/ISO/AVC
    Duration                    : 23 min 39 s
    Bit rate mode               : Constant
    Bit rate                    : 6 841 kb/s
    Nominal bit rate            : 10 000 kb/s
    Width                       : 1 920 pixels
    Height                      : 1 080 pixels
    Display aspect ratio        : 16:9
    Frame rate mode             : Constant
    Frame rate                  : 23.976 (24000/1001) FPS
    Color space                 : YUV
    Chroma subsampling          : 4:2:0
    Bit depth                   : 8 bits
    Scan type                   : Progressive
    Bits/(Pixel*Frame)          : 0.138
    Stream size                 : 1.13 GiB (97%)
    Default                     : Yes
    Forced                      : No
    Color range                 : Limited
    Color primaries             : BT.709
    Transfer characteristics    : BT.709
    Matrix coefficients         : BT.709
    Audio
    ID                          : 2
    Format                      : E-AC-3
    Format/Info                 : Enhanced AC-3
    Commercial name             : Dolby Digital Plus
    Codec ID                    : A_EAC3
    Duration                    : 23 min 39 s
    Bit rate mode               : Constant
    Bit rate                    : 224 kb/s
    Channel(s)                  : 2 channels
    Channel layout              : L R
    Sampling rate               : 48.0 kHz
    Frame rate                  : 31.250 FPS (1536 SPF)
    Compression mode            : Lossy
    Stream size                 : 37.9 MiB (3%)
    Language                    : Japanese
    Service kind                : Complete Main
    Default                     : Yes
    Forced                      : No
    Text #1
    ID                          : 3
    Format                      : UTF-8
    Codec ID                    : S_TEXT/UTF8
    Codec ID/Info               : UTF-8 Plain Text
    Duration                    : 22 min 13 s
    Bit rate                    : 56 b/s
    Frame rate                  : 0.241 FPS
    Count of elements           : 322
    Stream size                 : 9.23 KiB (0%)
    Language                    : English
    Default                     : Yes
    Forced                      : No
    Text #2
    ID                          : 4
    Format                      : UTF-8
    Codec ID                    : S_TEXT/UTF8
    Codec ID/Info               : UTF-8 Plain Text
    Duration                    : 22 min 12 s
    Bit rate                    : 51 b/s
    Frame rate                  : 0.221 FPS
    Count of elements           : 294
    Stream size                 : 8.35 KiB (0%)
    Language                    : Indonesian (ID)
    Default                     : No
    Forced                      : No
    Text #3
    ID                          : 5
    Format                      : UTF-8
    Codec ID                    : S_TEXT/UTF8
    Codec ID/Info               : UTF-8 Plain Text
    Duration                    : 22 min 13 s
    Bit rate                    : 56 b/s
    Frame rate                  : 0.241 FPS
    Count of elements           : 321
    Stream size                 : 9.22 KiB (0%)
    Language                    : Malay (MY)
    Default                     : No
    Forced                      : No
    Text #4
    ID                          : 6
    Format                      : UTF-8
    Codec ID                    : S_TEXT/UTF8
    Codec ID/Info               : UTF-8 Plain Text
    Duration                    : 22 min 13 s
    Bit rate                    : 125 b/s
    Frame rate                  : 0.295 FPS
    Count of elements           : 393
    Stream size                 : 20.5 KiB (0%)
    Language                    : Thai (TH)
    Default                     : No
    Forced                      : No
    Text #5
    ID                          : 7
    Format                      : UTF-8
    Codec ID                    : S_TEXT/UTF8
    Codec ID/Info               : UTF-8 Plain Text
    Duration                    : 22 min 13 s
    Bit rate                    : 71 b/s
    Frame rate                  : 0.282 FPS
    Count of elements           : 376
    Stream size                 : 11.6 KiB (0%)
    Language                    : Vietnamese (VN)
    Default                     : No
    Forced                      : No
    Text #6
    ID                          : 8
    Format                      : UTF-8
    Codec ID                    : S_TEXT/UTF8
    Codec ID/Info               : UTF-8 Plain Text
    Duration                    : 22 min 13 s
    Bit rate                    : 45 b/s
    Frame rate                  : 0.259 FPS
    Count of elements           : 345
    Stream size                 : 7.35 KiB (0%)
    Language                    : Chinese (Traditional)
    Default                     : No
    Forced                      : No
    



    #Link die, comment hoặc inbox mình reup.
     
    Chỉnh sửa cuối: 30/3/24
  2. hutapa

    hutapa Well-Known Member

    Tham gia ngày:
    14/1/10
    Bài viết:
    2,547
    Đã được cảm ơn:
    20,349
    Giới tính:
    Nam
    Update: S04
     
  3. hutapa

    hutapa Well-Known Member

    Tham gia ngày:
    14/1/10
    Bài viết:
    2,547
    Đã được cảm ơn:
    20,349
    Giới tính:
    Nam
    Reup
     

Chia sẻ trang này