[Fshare] [Việt Nam|Tội phạm|2022] Biệt Thự Đèn Lồng - Red Lantern Villa - 4K - 6 Tập

Thảo luận trong 'Phim bộ - Series' bắt đầu bởi Pphimpp, 29/10/22.

  1. Pphimpp

    Pphimpp Well-Known Member

    Tham gia ngày:
    15/11/13
    Bài viết:
    5,795
    Đã được cảm ơn:
    38,380
    Giới tính:
    Nam
    Biệt Thự Đèn Lồng
    [Vietnam] Red Lantern Villa 2022 [2160p]
    [​IMG]
    [​IMG]
    2160p + 1080p|HEVC|GLX
    06 tập [Completed]

    Nhấn nút Cảm ơn (dưới chân bài) để thấy link!

    THÔNG TIN - NỘI DUNG
    Nước sản xuất: Việt Nam
    Năm sản xuất: 2022
    Thể loại: Tình Cảm, Tâm Lý
    Số tập: 6 tập
    Đạo diễn: NSƯT Mai Hồng Phong

    Diễn viễn:
    Phạm Tiến Lộc, Lương Ngọc Hằng, Hương Giang, Đỗ Thị Trâm Anh, Phạm Vân, Tô Đồng Lan, Mạnh Cường, Nguyễn Hữu Chung, Bé Thanh Thảo, Ali Quang Khải,...

    Dựa trên vụ án chấn động có thật về kẻ bắt cóc và nạn nhân mắc hội chứng Stockholm, phim xoay quanh gã dược sĩ lập dị giam giữ 4 cô gái làm nô lệ trong tầng hầm ngôi biệt thự treo đầy đèn lồng đỏ.

    MEDIAINFO
    General
    Unique ID : 219351845166005783567967835027485614837 (0xA505A0F23B9D8BEB3CFCF4ADE551E2F5)
    Complete name : Red.Lantern.Villa.2022.E01.2160p.WEB-DL.H264.EAC3.PPPP.mkv
    Format : Matroska
    Format version : Version 4
    File size : 2.21 GiB
    Duration : 25 min 45 s
    Overall bit rate : 12.3 Mb/s
    Movie name : [Vietnam|GLXP|2022] Red Lantern Villa Ep01 4K [PPPP]
    Encoded date : UTC 2022-10-28 15:51:09
    Writing application : mkvmerge v68.0.0 ('The Curtain') 64-bit
    Writing library : libebml v1.4.2 + libmatroska v1.6.4
    Video
    ID : 1
    Format : HEVC
    Format/Info : High Efficiency Video Coding
    Format profile : Main [email protected]@Main
    Codec ID : V_MPEGH/ISO/HEVC
    Duration : 25 min 45 s
    Bit rate : 11.6 Mb/s
    Width : 3 840 pixels
    Height : 2 160 pixels
    Display aspect ratio : 16:9
    Frame rate mode : Constant
    Frame rate : 25.000 FPS
    Color space : YUV
    Chroma subsampling : 4:2:0
    Bit depth : 10 bits
    Bits/(Pixel*Frame) : 0.056
    Stream size : 2.09 GiB (95%)
    Writing library : x265 3.0_Au+24-4217e691387c:[Linux][GCC 4.8.5][64 bit] 10bit
    Encoding settings : cpuid=1111039 / frame-threads=6 / wpp / no-pmode / no-pme / no-psnr / no-ssim / log-level=2 / input-csp=1 / input-res=3840x2160 / interlace=0 / total-frames=0 / level-idc=51 / high-tier=1 / uhd-bd=0 / ref=3 / no-allow-non-conformance / no-repeat-headers / annexb / no-aud / no-hrd / info / hash=0 / no-temporal-layers / no-open-gop / min-keyint=50 / keyint=50 / gop-lookahead=0 / bframes=4 / b-adapt=2 / b-pyramid / bframe-bias=0 / rc-lookahead=60 / lookahead-slices=8 / scenecut=0 / radl=0 / no-splice / no-intra-refresh / ctu=64 / min-cu-size=8 / no-rect / no-amp / max-tu-size=32 / tu-inter-depth=1 / tu-intra-depth=1 / limit-tu=0 / rdoq-level=0 / dynamic-rd=0.00 / no-ssim-rd / signhide / no-tskip / nr-intra=0 / nr-inter=0 / no-constrained-intra / strong-intra-smoothing / max-merge=2 / limit-refs=3 / no-limit-modes / me=2 / subme=2 / merange=57 / temporal-mvp / weightp / no-weightb / no-analyze-src-pics / deblock=0:0 / no-sao / no-sao-non-deblock / rd=3 / no-early-skip / rskip / no-fast-intra / no-tskip-fast / no-cu-lossless / no-b-intra / no-splitrd-skip / rdpenalty=0 / psy-rd=2.00 / psy-rdoq=0.00 / no-rd-refine / no-lossless / cbqpoffs=0 / crqpoffs=0 / rc=abr / bitrate=12000 / qcomp=0.60 / qpstep=4 / stats-write=0 / stats-read=0 / vbv-maxrate=24000 / vbv-bufsize=30000 / vbv-init=0.8 / ipratio=1.40 / pbratio=1.30 / aq-mode=2 / aq-strength=1.00 / cutree / zone-count=0 / no-strict-cbr / qg-size=32 / no-rc-grain / qpmax=69 / qpmin=0 / no-const-vbv / sar=1 / overscan=0 / videoformat=5 / range=0 / colorprim=1 / transfer=1 / colormatrix=1 / chromaloc=0 / display-window=0 / max-cll=0,0 / min-luma=0 / max-luma=1023 / log2-max-poc-lsb=8 / vui-timing-info / vui-hrd-info / slices=1 / no-opt-qp-pps / no-opt-ref-list-length-pps / no-multi-pass-opt-rps / scenecut-bias=0.05 / no-opt-cu-delta-qp / no-aq-motion / no-hdr / no-hdr-opt / no-dhdr10-opt / no-idr-recovery-sei / analysis-reuse-level=5 / scale-factor=0 / refine-intra=0 / refine-inter=0 / refine-mv=0 / refine-ctu-distortion=0 / no-limit-sao / ctu-info=0 / no-lowpass-dct / refine-analysis-type=-1028577352 / copy-pic=1 / max-ausize-factor=1.0 / no-dynamic-refine / no-single-sei / no-hevc-aq / no-svt / qp-adaptation-range=1.00
    Language : Vietnamese
    Default : Yes
    Forced : No
    Color range : Limited
    Color primaries : BT.709
    Transfer characteristics : BT.709
    Matrix coefficients : BT.709
    Audio
    ID : 2
    Format : E-AC-3
    Format/Info : Enhanced AC-3
    Commercial name : Dolby Digital Plus
    Codec ID : A_EAC3
    Duration : 25 min 45 s
    Bit rate mode : Constant
    Bit rate : 640 kb/s
    Channel(s) : 6 channels
    Channel layout : L R C LFE Ls Rs
    Sampling rate : 48.0 kHz
    Frame rate : 31.250 FPS (1536 SPF)
    Bit depth : 32 bits
    Compression mode : Lossy
    Stream size : 118 MiB (5%)
    Language : Vietnamese
    Service kind : Complete Main
    Default : Yes
    Forced : No
    Text
    ID : 3
    Format : UTF-8
    Codec ID : S_TEXT/UTF8
    Codec ID/Info : UTF-8 Plain Text
    Duration : 23 min 51 s
    Bit rate : 28 b/s
    Frame rate : 0.139 FPS
    Count of elements : 199
    Stream size : 5.04 KiB (0%)
    Language : English
    Default : No
    Forced : No

    SCREENSHOT

    [​IMG]
    CHÚC CÁC BẠN XEM PHIM VUI VẺ!
     
    Chỉnh sửa cuối: 30/1/23
  2. showtaro3

    showtaro3 Active Member

    Tham gia ngày:
    26/11/17
    Bài viết:
    292
    Đã được cảm ơn:
    167
    Giới tính:
    Nữ
    bác @Pphimpp giờ nấu đủ thể loại luôn nhỉ, cảm ơn bác đã up bản của mình. Giữ gin sức khỏe nha bác
     
    Pphimpp cảm ơn bài này.
  3. Pphimpp

    Pphimpp Well-Known Member

    Tham gia ngày:
    15/11/13
    Bài viết:
    5,795
    Đã được cảm ơn:
    38,380
    Giới tính:
    Nam
    Tập 3.
     
    thienlinh078 cảm ơn bài này.
  4. Pphimpp

    Pphimpp Well-Known Member

    Tham gia ngày:
    15/11/13
    Bài viết:
    5,795
    Đã được cảm ơn:
    38,380
    Giới tính:
    Nam
    Không để ý bài khác nên lỡ đăng nên ráng theo hết chứ cũng bận lười lắm bạn.
     
    thienlinh078 cảm ơn bài này.
  5. Pphimpp

    Pphimpp Well-Known Member

    Tham gia ngày:
    15/11/13
    Bài viết:
    5,795
    Đã được cảm ơn:
    38,380
    Giới tính:
    Nam
    T4-5.
     
    boylak21 and showtaro3 like this.
  6. Pphimpp

    Pphimpp Well-Known Member

    Tham gia ngày:
    15/11/13
    Bài viết:
    5,795
    Đã được cảm ơn:
    38,380
    Giới tính:
    Nam
    T6end.
     
    showtaro3, hutapa and boylak21 like this.
  7. luctuyetkj

    luctuyetkj New Member

    Tham gia ngày:
    13/11/13
    Bài viết:
    26
    Đã được cảm ơn:
    23
    b reup lại giúp m với link die mất rồi
     
    Pphimpp cảm ơn bài này.
  8. Pphimpp

    Pphimpp Well-Known Member

    Tham gia ngày:
    15/11/13
    Bài viết:
    5,795
    Đã được cảm ơn:
    38,380
    Giới tính:
    Nam
    Re-up.
     
    Duong Mai and Duygsdkm like this.

Chia sẻ trang này