[Việt Nam | Crime | Drama] Ròm - Rom 2019 1080p AMZN WEB DDP5.1 x264

Thảo luận trong 'WEB-DL, HDTV' bắt đầu bởi hutapa, 10/2/23.

  1. hutapa

    hutapa Well-Known Member

    Tham gia ngày:
    14/1/10
    Bài viết:
    2,498
    Đã được cảm ơn:
    19,903
    Giới tính:
    Nam
    Ròm
    Rom 2019 VIETNAMESE
    1080p AMZN WEB DDP5.1 x264


    https://www.imdb.com/title/tt11095810/
    Những trò đỏ đen vốn từ lâu luôn bị lên án là thứ tệ nạn xã hội. Điện ảnh mượn đề tài về cờ bạc, cá cược để cho ra đời những bộ phim châm biếm trào phúng, mỉa mai. Rồi sau tất cả, thông điệp truyền tải vẫn hướng người xem có cái nhìn đúng đắn hơn về tác hại của thói cờ bạc.

    Ròm đưa người xem đến những khu xóm lao động, nơi cuộc sống của con người còn nhiều khó khăn. Áp lực kiếm tiền để sinh tồn và khát khao đổi đời đã khiến họ sa vào trò may rủi mang tên “ma đề”. Lần đầu tiên có một bộ phim khắc họa chân thực, rõ nét về góc tối và phản ánh hiện trạng xã hội. Tại thành phố vốn được xem là hoa lệ tuyệt đẹp ấy, vẫn còn đó nhiều mảnh đời phải chật vật từng ngày với đồng tiền. Ẩn sau sự hào nhoáng với ánh đèn rực rỡ chính là các con hẻm “ổ chuột” với đầy rẫy tệ nạn, mà hễ nhắc đến ai cũng khiếp sợ.


    [​IMG] [​IMG] [​IMG] [​IMG] [​IMG] [​IMG]


    Mã:
    General
    Format                      : Matroska
    Format version              : Version 4
    File size                   : 5.01 GiB
    Duration                    : 1 h 18 min
    Overall bit rate            : 9 103 kb/s
    Movie name                  : Rom.2019.VIETNAMESE.1080p.AMZN.WEB-DL.DDP5.1.H.264-THR
    Encoded date                : UTC 2023-02-09 00:04:36
    Writing application         : mkvmerge v72.0.0 ('Minuano (Six-eight)') 64-bit
    Writing library             : libebml v1.4.4 + libmatroska v1.7.1
    Video
    ID                          : 1
    Format                      : AVC
    Format/Info                 : Advanced Video Codec
    Format profile              : High@L4
    Format settings             : CABAC / 4 Ref Frames
    Format settings, CABAC      : Yes
    Format settings, Reference  : 4 frames
    Codec ID                    : V_MPEG4/ISO/AVC
    Duration                    : 1 h 18 min
    Bit rate mode               : Constant
    Bit rate                    : 8 459 kb/s
    Nominal bit rate            : 10 000 kb/s
    Width                       : 1 920 pixels
    Height                      : 872 pixels
    Display aspect ratio        : 2.2:1
    Frame rate mode             : Constant
    Frame rate                  : 24.000 FPS
    Color space                 : YUV
    Chroma subsampling          : 4:2:0
    Bit depth                   : 8 bits
    Scan type                   : Progressive
    Bits/(Pixel*Frame)          : 0.211
    Stream size                 : 4.66 GiB (93%)
    Default                     : Yes
    Forced                      : No
    Color range                 : Limited
    Color primaries             : BT.709
    Transfer characteristics    : BT.709
    Matrix coefficients         : BT.709
    Audio
    ID                          : 2
    Format                      : E-AC-3
    Format/Info                 : Enhanced AC-3
    Commercial name             : Dolby Digital Plus
    Codec ID                    : A_EAC3
    Duration                    : 1 h 18 min
    Bit rate mode               : Constant
    Bit rate                    : 640 kb/s
    Channel(s)                  : 6 channels
    Channel layout              : L R C LFE Ls Rs
    Sampling rate               : 48.0 kHz
    Frame rate                  : 31.250 FPS (1536 SPF)
    Compression mode            : Lossy
    Stream size                 : 361 MiB (7%)
    Language                    : Vietnamese
    Service kind                : Complete Main
    Default                     : Yes
    Forced                      : No
    Text
    ID                          : 3
    Format                      : UTF-8
    Codec ID                    : S_TEXT/UTF8
    Codec ID/Info               : UTF-8 Plain Text
    Duration                    : 1 h 9 min
    Bit rate                    : 37 b/s
    Frame rate                  : 0.145 FPS
    Count of elements           : 609
    Stream size                 : 19.0 KiB (0%)
    Language                    : English (US)
    Default                     : No
    Forced                      : No
    



    #Link die, comment hoặc inbox mình reup.
     
    Chỉnh sửa cuối: 30/7/23

Chia sẻ trang này