[Việt Nam|2022|Kinh dị|Hài] Nhà Không Bán 4K WEB-DL H265 AC3 5.1 PPPP

Thảo luận trong 'WEB-DL, HDTV 4K' bắt đầu bởi Pphimpp, 28/5/22.

  1. Pphimpp

    Pphimpp Well-Known Member

    Tham gia ngày:
    15/11/13
    Bài viết:
    5,657
    Đã được cảm ơn:
    36,893
    Giới tính:
    Nam
    NHÀ KHÔNG BÁN
    VIỆT NAM - 2022
    [​IMG]
    [​IMG]
    4K H265 - AC3 5.1 + 1080p WEB-DL
    Nhấn nút Cảm ơn (dưới chân bài) để thấy link!

    https://www.imdb.com/title/tt17425006/

    Diễn viên: NSƯT Kim Xuân, Minh Hoàng, Hạnh Thúy, Việt Hương, Hữu Tín, Nam Em,...
    Đạo diễn: Hoàng Tuấn Cường
    Năm sản xuất: 2022
    Quốc gia: Việt Nam

    NỘI DUNG
    Bị đồn là có hồn ma ám, căn nhà cổ của cha để lại cho bà Ngọc và ông Ngà mãi không bán được. Quyết tâm về quê để tìm cách xóa tan tin đồn và rao bán căn nhà, những sự kiện kỳ lạ bắt đầu ập tới.

    TRAILER


    MEDIAINFO

    General
    Unique ID : 271578096977377277645461398661887600205 (0xCC5009F6B7647D7D6C87EA2190BAA64D)
    Complete name : Nha.Khong.Ban.2022.2160p.WEB-DL.H265.AC3.5.1.PPPP.mkv
    Format : Matroska
    Format version : Version 4
    File size : 10.6 GiB
    Duration : 2 h 0 min
    Overall bit rate : 12.5 Mb/s
    Movie name : Nhà Không Bán 2022 4K HEVC AC3 5.1 PPPP
    Encoded date : UTC 2022-05-28 07:26:45
    Writing application : mkvmerge v52.0.0 ('Secret For The Mad') 64-bit
    Writing library : libebml v1.4.1 + libmatroska v1.6.2
    Video
    ID : 1
    Format : HEVC
    Format/Info : High Efficiency Video Coding
    Format profile : Main [email protected]@Main
    Codec ID : V_MPEGH/ISO/HEVC
    Duration : 2 h 0 min
    Bit rate : 11.9 Mb/s
    Width : 3 840 pixels
    Height : 1 608 pixels
    Display aspect ratio : 2.40:1
    Frame rate mode : Constant
    Frame rate : 24.000 FPS
    Color space : YUV
    Chroma subsampling : 4:2:0
    Bit depth : 10 bits
    Bits/(Pixel*Frame) : 0.080
    Stream size : 10.0 GiB (95%)
    Writing library : x265 3.0_Au+24-4217e691387c:[Linux][GCC 4.8.5][64 bit] 10bit
    Encoding settings : cpuid=1111039 / frame-threads=5 / wpp / no-pmode / no-pme / no-psnr / no-ssim / log-level=2 / input-csp=1 / input-res=3840x1608 / interlace=0 / total-frames=0 / level-idc=51 / high-tier=1 / uhd-bd=0 / ref=3 / no-allow-non-conformance / no-repeat-headers / annexb / no-aud / no-hrd / info / hash=0 / no-temporal-layers / no-open-gop / min-keyint=48 / keyint=48 / gop-lookahead=0 / bframes=4 / b-adapt=2 / b-pyramid / bframe-bias=0 / rc-lookahead=60 / lookahead-slices=8 / scenecut=0 / radl=0 / no-splice / no-intra-refresh / ctu=64 / min-cu-size=8 / no-rect / no-amp / max-tu-size=32 / tu-inter-depth=1 / tu-intra-depth=1 / limit-tu=0 / rdoq-level=0 / dynamic-rd=0.00 / no-ssim-rd / signhide / no-tskip / nr-intra=0 / nr-inter=0 / no-constrained-intra / strong-intra-smoothing / max-merge=2 / limit-refs=3 / no-limit-modes / me=2 / subme=2 / merange=57 / temporal-mvp / weightp / no-weightb / no-analyze-src-pics / deblock=0:0 / no-sao / no-sao-non-deblock / rd=3 / no-early-skip / rskip / no-fast-intra / no-tskip-fast / no-cu-lossless / no-b-intra / no-splitrd-skip / rdpenalty=0 / psy-rd=2.00 / psy-rdoq=0.00 / no-rd-refine / no-lossless / cbqpoffs=0 / crqpoffs=0 / rc=abr / bitrate=12000 / qcomp=0.60 / qpstep=4 / stats-write=0 / stats-read=0 / vbv-maxrate=24000 / vbv-bufsize=30000 / vbv-init=0.8 / ipratio=1.40 / pbratio=1.30 / aq-mode=2 / aq-strength=1.00 / cutree / zone-count=0 / no-strict-cbr / qg-size=32 / no-rc-grain / qpmax=69 / qpmin=0 / no-const-vbv / sar=1 / overscan=0 / videoformat=5 / range=0 / colorprim=1 / transfer=1 / colormatrix=1 / chromaloc=0 / display-window=0 / max-cll=0,0 / min-luma=0 / max-luma=1023 / log2-max-poc-lsb=8 / vui-timing-info / vui-hrd-info / slices=1 / no-opt-qp-pps / no-opt-ref-list-length-pps / no-multi-pass-opt-rps / scenecut-bias=0.05 / no-opt-cu-delta-qp / no-aq-motion / no-hdr / no-hdr-opt / no-dhdr10-opt / no-idr-recovery-sei / analysis-reuse-level=5 / scale-factor=0 / refine-intra=0 / refine-inter=0 / refine-mv=0 / refine-ctu-distortion=0 / no-limit-sao / ctu-info=0 / no-lowpass-dct / refine-analysis-type=80 / copy-pic=1 / max-ausize-factor=1.0 / no-dynamic-refine / no-single-sei / no-hevc-aq / no-svt / qp-adaptation-range=1.00
    Language : Vietnamese
    Default : Yes
    Forced : No
    Color range : Limited
    Color primaries : BT.709
    Transfer characteristics : BT.709
    Matrix coefficients : BT.709
    Audio
    ID : 2
    Format : E-AC-3
    Format/Info : Enhanced AC-3
    Commercial name : Dolby Digital Plus
    Codec ID : A_EAC3
    Duration : 2 h 0 min
    Bit rate mode : Constant
    Bit rate : 640 kb/s
    Channel(s) : 6 channels
    Channel layout : L R C LFE Ls Rs
    Sampling rate : 48.0 kHz
    Frame rate : 31.250 FPS (1536 SPF)
    Compression mode : Lossy
    Stream size : 553 MiB (5%)
    Language : Vietnamese
    Service kind : Complete Main
    Default : Yes
    Forced : No
    Text
    ID : 3
    Format : UTF-8
    Codec ID : S_TEXT/UTF8
    Codec ID/Info : UTF-8 Plain Text
    Duration : 48 min 2 s
    Bit rate : 0 b/s
    Count of elements : 6
    Stream size : 161 Bytes (0%)
    Language : Vietnamese
    Default : Yes
    Forced : No

    SCREENSHOT
    [​IMG]
     
    Chỉnh sửa cuối: 14/6/22
  2. Pphimpp

    Pphimpp Well-Known Member

    Tham gia ngày:
    15/11/13
    Bài viết:
    5,657
    Đã được cảm ơn:
    36,893
    Giới tính:
    Nam
    Re-pack, sync lại sub Việt 1 số đoạn nói tiếng Pháp.
    Nhấn nút Cảm ơn (dưới chân bài) để thấy link!
     
  3. nghiad14

    nghiad14 Active Member

    Tham gia ngày:
    14/11/10
    Bài viết:
    225
    Đã được cảm ơn:
    167
    Nghề nghiệp:
    sinh vien
    Nơi ở:
    Viet Nam
    phim hay hok bạn
     
    Pphimpp cảm ơn bài này.
  4. Pphimpp

    Pphimpp Well-Known Member

    Tham gia ngày:
    15/11/13
    Bài viết:
    5,657
    Đã được cảm ơn:
    36,893
    Giới tính:
    Nam
    Tùy cảm nhận thôi bạn :)
     
  5. Pphimpp

    Pphimpp Well-Known Member

    Tham gia ngày:
    15/11/13
    Bài viết:
    5,657
    Đã được cảm ơn:
    36,893
    Giới tính:
    Nam
    Chủ yếu là giải trí chứ cũng k mong gì nhiều lắm bạn.
     
    nghiad14 cảm ơn bài này.
  6. nghiad14

    nghiad14 Active Member

    Tham gia ngày:
    14/11/10
    Bài viết:
    225
    Đã được cảm ơn:
    167
    Nghề nghiệp:
    sinh vien
    Nơi ở:
    Viet Nam
    chắc là mới xem, phim vn thì chỉ thế thôi. cảm ơn bạn đã Nỗ lực chia sẽ phim.
     
    Pphimpp cảm ơn bài này.
  7. boylak21

    boylak21 Well-Known Member

    Tham gia ngày:
    27/1/11
    Bài viết:
    794
    Đã được cảm ơn:
    2,669
    nay bạn chủ qua phim vn luôn :)
     
    Pphimpp cảm ơn bài này.
  8. Pphimpp

    Pphimpp Well-Known Member

    Tham gia ngày:
    15/11/13
    Bài viết:
    5,657
    Đã được cảm ơn:
    36,893
    Giới tính:
    Nam
    K biết có thể gọi là ủng hộ điện ảnh Việt hay k nữa :) Nghe thì hơi đúng mà lại rất rất sai.
     
    boylak21 cảm ơn bài này.
  9. boylak21

    boylak21 Well-Known Member

    Tham gia ngày:
    27/1/11
    Bài viết:
    794
    Đã được cảm ơn:
    2,669
    lỡ ủng hộ Vn rồi, bãn làm bộ sưu tập luôn đi.^^
     

Chia sẻ trang này