[Việt Nam|2022|Hành động|Hài] Chìa Khóa Trăm Tỷ - 4K WEB-DL H265 AC3 5.1 - PPPP

Thảo luận trong 'WEB-DL, HDTV' bắt đầu bởi Pphimpp, 28/5/22.

  1. Pphimpp

    Pphimpp Well-Known Member

    Tham gia ngày:
    15/11/13
    Bài viết:
    5,657
    Đã được cảm ơn:
    36,891
    Giới tính:
    Nam
    CHÌA KHÓA TRĂM TỶ
    VIỆT NAM - 2022
    [​IMG]

    4K H265 - AC3 5.1 + 1080p WEB-DL

    Nhấn nút Cảm ơn (dưới chân bài) để thấy link!

    https://www.imdb.com/title/tt17494634/

    Diễn viên:Kiều Minh Tuấn, Thu Trang, Jun Vũ
    Đạo diễn:Võ Thanh Hoà
    Năm sản xuất: 2022
    Quốc gia: Việt Nam

    NỘI DUNG
    Phan Thạch, một sát thủ khét tiếng, sau khi gặp tai nạn bất ngờ thì mất trí nhớ. Khi tỉnh lại, anh bắt đầu lại với tư cách... diễn viên quần chúng, và bỗng dưng tìm được một nửa của đời mình.

    TRAILER


    MEDIAINFO

    General
    Unique ID : 151550375864169822106116383394571168741 (0x72038A6B0D7D930617C01C4ED9532BE5)
    Complete name :Chia.Khoa.Tram.Ty.2022.2160p.WEB-DL.H265.AC3.5.1.PPPP.mkv
    Format : Matroska
    Format version : Version 4
    File size : 10.4 GiB
    Duration : 1 h 58 min
    Overall bit rate : 12.6 Mb/s
    Movie name : Chìa Khoá Trăm Tỷ 2022 4K HEVC AC3 5.1 PPPP
    Encoded date : UTC 2022-05-28 09:11:08
    Writing application : mkvmerge v52.0.0 ('Secret For The Mad') 64-bit
    Writing library : libebml v1.4.1 + libmatroska v1.6.2
    Video
    ID : 1
    Format : HEVC
    Format/Info : High Efficiency Video Coding
    Format profile : Main [email protected]@Main
    Codec ID : V_MPEGH/ISO/HEVC
    Duration : 1 h 58 min
    Bit rate : 11.9 Mb/s
    Width : 3 840 pixels
    Height : 1 608 pixels
    Display aspect ratio : 2.40:1
    Frame rate mode : Constant
    Frame rate : 24.000 FPS
    Color space : YUV
    Chroma subsampling : 4:2:0
    Bit depth : 10 bits
    Bits/(Pixel*Frame) : 0.081
    Stream size : 9.86 GiB (95%)
    Writing library : x265 3.0_Au+24-4217e691387c:[Linux][GCC 4.8.5][64 bit] 10bit
    Encoding settings : cpuid=1111039 / frame-threads=5 / wpp / no-pmode / no-pme / no-psnr / no-ssim / log-level=2 / input-csp=1 / input-res=3840x1608 / interlace=0 / total-frames=0 / level-idc=51 / high-tier=1 / uhd-bd=0 / ref=3 / no-allow-non-conformance / no-repeat-headers / annexb / no-aud / no-hrd / info / hash=0 / no-temporal-layers / no-open-gop / min-keyint=48 / keyint=48 / gop-lookahead=0 / bframes=4 / b-adapt=2 / b-pyramid / bframe-bias=0 / rc-lookahead=60 / lookahead-slices=8 / scenecut=0 / radl=0 / no-splice / no-intra-refresh / ctu=64 / min-cu-size=8 / no-rect / no-amp / max-tu-size=32 / tu-inter-depth=1 / tu-intra-depth=1 / limit-tu=0 / rdoq-level=0 / dynamic-rd=0.00 / no-ssim-rd / signhide / no-tskip / nr-intra=0 / nr-inter=0 / no-constrained-intra / strong-intra-smoothing / max-merge=2 / limit-refs=3 / no-limit-modes / me=2 / subme=2 / merange=57 / temporal-mvp / weightp / no-weightb / no-analyze-src-pics / deblock=0:0 / no-sao / no-sao-non-deblock / rd=3 / no-early-skip / rskip / no-fast-intra / no-tskip-fast / no-cu-lossless / no-b-intra / no-splitrd-skip / rdpenalty=0 / psy-rd=2.00 / psy-rdoq=0.00 / no-rd-refine / no-lossless / cbqpoffs=0 / crqpoffs=0 / rc=abr / bitrate=12000 / qcomp=0.60 / qpstep=4 / stats-write=0 / stats-read=0 / vbv-maxrate=24000 / vbv-bufsize=30000 / vbv-init=0.8 / ipratio=1.40 / pbratio=1.30 / aq-mode=2 / aq-strength=1.00 / cutree / zone-count=0 / no-strict-cbr / qg-size=32 / no-rc-grain / qpmax=69 / qpmin=0 / no-const-vbv / sar=1 / overscan=0 / videoformat=5 / range=0 / colorprim=1 / transfer=1 / colormatrix=1 / chromaloc=0 / display-window=0 / max-cll=0,0 / min-luma=0 / max-luma=1023 / log2-max-poc-lsb=8 / vui-timing-info / vui-hrd-info / slices=1 / no-opt-qp-pps / no-opt-ref-list-length-pps / no-multi-pass-opt-rps / scenecut-bias=0.05 / no-opt-cu-delta-qp / no-aq-motion / no-hdr / no-hdr-opt / no-dhdr10-opt / no-idr-recovery-sei / analysis-reuse-level=5 / scale-factor=0 / refine-intra=0 / refine-inter=0 / refine-mv=0 / refine-ctu-distortion=0 / no-limit-sao / ctu-info=0 / no-lowpass-dct / refine-analysis-type=0 / copy-pic=1 / max-ausize-factor=1.0 / no-dynamic-refine / no-single-sei / no-hevc-aq / no-svt / qp-adaptation-range=1.00
    Language : Vietnamese
    Default : Yes
    Forced : No
    Color range : Limited
    Color primaries : BT.709
    Transfer characteristics : BT.709
    Matrix coefficients : BT.709
    Audio
    ID : 2
    Format : E-AC-3
    Format/Info : Enhanced AC-3
    Commercial name : Dolby Digital Plus
    Codec ID : A_EAC3
    Duration : 1 h 58 min
    Bit rate mode : Constant
    Bit rate : 640 kb/s
    Channel(s) : 6 channels
    Channel layout : L R C LFE Ls Rs
    Sampling rate : 48.0 kHz
    Frame rate : 31.250 FPS (1536 SPF)
    Compression mode : Lossy
    Stream size : 541 MiB (5%)
    Language : Vietnamese
    Service kind : Complete Main
    Default : Yes
    Forced : No
    Text
    ID : 3
    Format : UTF-8
    Codec ID : S_TEXT/UTF8
    Codec ID/Info : UTF-8 Plain Text
    Duration : 1 h 51 min
    Bit rate : 50 b/s
    Count of elements : 1794
    Stream size : 40.9 KiB (0%)
    Language : English
    Default : No
    Forced : No

    SCREENSHOT
    [​IMG]
     
  2. nhocdancerlc

    nhocdancerlc Active Member

    Tham gia ngày:
    20/1/21
    Bài viết:
    309
    Đã được cảm ơn:
    87
    Giới tính:
    Nam
    bản làm lại của phim hàn thôi, xem bt
     
    TD20 and Pphimpp like this.
  3. Pphimpp

    Pphimpp Well-Known Member

    Tham gia ngày:
    15/11/13
    Bài viết:
    5,657
    Đã được cảm ơn:
    36,891
    Giới tính:
    Nam
    Không nói các khâu khác, phim VN toàn vậy, yếu và thiếu kịch bản, biên kịch bạn.
     
  4. nhocdancerlc

    nhocdancerlc Active Member

    Tham gia ngày:
    20/1/21
    Bài viết:
    309
    Đã được cảm ơn:
    87
    Giới tính:
    Nam
    âm nhạc thì thôi rồi, khỏi phải nói k như âm nhạc ngày xưa :D
     
    Pphimpp cảm ơn bài này.
  5. Phan Luc Hoa

    Phan Luc Hoa Well-Known Member

    Tham gia ngày:
    11/6/21
    Bài viết:
    548
    Đã được cảm ơn:
    4,640
    mà làm không hay, remake mà dở quá, đến cả phim Nghề siêu dễ mới đây cũng thế, đạo diễn của VN chỉ đến đấy thôi
     
    StarPlus and Pphimpp like this.
  6. tlamhp1

    tlamhp1 New Member

    Tham gia ngày:
    21/5/22
    Bài viết:
    23
    Đã được cảm ơn:
    17
    Giới tính:
    Nam
    Phim Việt Nam giờ hình như chủ yếu là sàn diễn của các diễn viên hài hoặc xu hướng hài chứ các dòng diễn khác hình như ít đi. Mà cũng thực sự không thấy sự khác biệt nhiều giữa 2K và 4K cho lắm, chỉ khác nhau về dung lượng file thôi.
     
    Pphimpp cảm ơn bài này.
  7. StarPlus

    StarPlus Well-Known Member

    Tham gia ngày:
    11/11/21
    Bài viết:
    471
    Đã được cảm ơn:
    936
    Giới tính:
    Nam
    Tính cách dân tộc + Trình độ dân trí + Nhận thức XH = Mức tạo dựng & sự cảm thụ sản phẩm Nghệ thuật :)

    Thất bại của "bom tấn" 60 tỉ: 578: Phát Đạn Của Kẻ Điên của ĐD Lương Đình Dũng (với sự góp mặt của Hoa hậu Tây Nguyên H'Hen Niê) vừa qua là 1 trong những ví dụ điển hình.
     
    Phan Luc Hoa cảm ơn bài này.

Chia sẻ trang này