[Fshare] ★★★ Tổng hợp phim hoạt hình dựa trên DC Comics - 1080p - Internal - Scene ★★★

Thảo luận trong 'Phim hoạt hình' bắt đầu bởi liemvn2212, 24/3/18.

  1. ItsmeAJ

    ItsmeAJ Member

    Tham gia ngày:
    23/11/09
    Bài viết:
    86
    Đã được cảm ơn:
    52
    @liemvn2212

    bạn có show Justice League (2001 - 5 seasons ) không? Eng sub càng tốt.
     
    tncd2004 cảm ơn bài này.
  2. duong2k1

    duong2k1 New Member

    Tham gia ngày:
    31/10/18
    Bài viết:
    4
    Đã được cảm ơn:
    7
    link die r bác ơi
     
  3. duongminh83

    duongminh83 New Member

    Tham gia ngày:
    26/9/10
    Bài viết:
    15
    Đã được cảm ơn:
    6
    Link die hết rồi, reup giúp mình với bạn oi
     
    liemvn2212 and nvhanh like this.
  4. nvhanh

    nvhanh New Member

    Tham gia ngày:
    30/11/09
    Bài viết:
    4
    Đã được cảm ơn:
    2
    Link die hết, nhờ bạn kiểm tra lại giúp mình với.
     
    liemvn2212 cảm ơn bài này.
  5. sonnguyen0502

    sonnguyen0502 New Member

    Tham gia ngày:
    10/4/20
    Bài viết:
    1
    Đã được cảm ơn:
    2
    Giới tính:
    Nam
    link die rồi
     
    liemvn2212 and romvemot like this.
  6. Tô Khương Văn

    Tô Khương Văn New Member

    Tham gia ngày:
    18/8/19
    Bài viết:
    1
    Đã được cảm ơn:
    2
    Link này die rồi bạn.
     
    romvemot and liemvn2212 like this.
  7. nlong79

    nlong79 New Member

    Tham gia ngày:
    26/4/20
    Bài viết:
    1
    Đã được cảm ơn:
    7
    link die r bac a
     
  8. Quang1996

    Quang1996 New Member

    Tham gia ngày:
    28/10/17
    Bài viết:
    4
    Đã được cảm ơn:
    2
    link die het roi bac oi
     
    liemvn2212 cảm ơn bài này.
  9. meonao123

    meonao123 Active Member

    Tham gia ngày:
    15/12/09
    Bài viết:
    164
    Đã được cảm ơn:
    87
    bác chủ up quả Apokolips War ko ạ, để e hóng với.
     
    liemvn2212 cảm ơn bài này.
  10. meonao123

    meonao123 Active Member

    Tham gia ngày:
    15/12/09
    Bài viết:
    164
    Đã được cảm ơn:
    87
    bác chủ up quả Apokolips War ko ạ, để e hóng với.
     
  11. truongvtvn

    truongvtvn New Member

    Tham gia ngày:
    28/1/16
    Bài viết:
    25
    Đã được cảm ơn:
    18
    link die ne
     
    romvemot, Sigma9814 and liemvn2212 like this.
  12. TuanBaoHD

    TuanBaoHD New Member

    Tham gia ngày:
    28/7/09
    Bài viết:
    5
    Đã được cảm ơn:
    1
    Not found
     
    liemvn2212 cảm ơn bài này.
  13. liemvn2212

    liemvn2212 Well-Known Member

    Tham gia ngày:
    8/6/09
    Bài viết:
    890
    Đã được cảm ơn:
    42,288
    Giới tính:
    Nam
    Nghề nghiệp:
    IT Apprentice
    Nơi ở:
    Sài Gòn
    Thời gian qua mình bận quá nên bỏ bê topic này, mình đang re-up lại toàn bộ, bạn nào cần thì vào check links dần nhé. :D
     
    meonao123 cảm ơn bài này.
  14. liemvn2212

    liemvn2212 Well-Known Member

    Tham gia ngày:
    8/6/09
    Bài viết:
    890
    Đã được cảm ơn:
    42,288
    Giới tính:
    Nam
    Nghề nghiệp:
    IT Apprentice
    Nơi ở:
    Sài Gòn
    Superman: Red Son 2020 1080p BluRay x264 DTS-HD MA 5.1-FGT

    [​IMG]

    [​IMG]
    Mã:
    Video
    ID : 1
    Format : AVC
    Format/Info : Advanced Video Codec
    Format profile : [email protected]
    Format settings : CABAC / 4 Ref Frames
    Format settings, CABAC : Yes
    Format settings, Reference frames : 4 frames
    Codec ID : V_MPEG4/ISO/AVC
    Duration : 1 h 24 min
    Bit rate : 5 907 kb/s
    Width : 1 920 pixels
    Height : 1 080 pixels
    Display aspect ratio : 16:9
    Frame rate mode : Constant
    Frame rate : 23.976 (24000/1001) FPS
    Color space : YUV
    Chroma subsampling : 4:2:0
    Bit depth : 8 bits
    Scan type : Progressive
    Bits/(Pixel*Frame) : 0.119
    Stream size : 3.48 GiB (71%)
    Title : Superman.Red.Son.2020.1080p.BluRay.x264.DTS-HD.MA.5.1-FGT
    Writing library : x264 core 159 r2991 1771b55
    Encoding settings : cabac=1 / ref=4 / deblock=1:-3:-3 / analyse=0x3:0x133 / me=umh / subme=7 / psy=1 / psy_rd=1.00:0.00 / mixed_ref=1 / me_range=16 / chroma_me=1 / trellis=2 / 8x8dct=1 / cqm=0 / deadzone=21,11 / fast_pskip=1 / chroma_qp_offset=-2 / threads=16 / lookahead_threads=2 / sliced_threads=0 / nr=0 / decimate=1 / interlaced=0 / bluray_compat=0 / constrained_intra=0 / bframes=3 / b_pyramid=2 / b_adapt=2 / b_bias=0 / direct=3 / weightb=1 / open_gop=0 / weightp=2 / keyint=250 / keyint_min=23 / scenecut=40 / intra_refresh=0 / rc_lookahead=50 / rc=2pass / mbtree=1 / bitrate=5907 / ratetol=1.0 / qcomp=0.60 / qpmin=0 / qpmax=69 / qpstep=4 / cplxblur=20.0 / qblur=0.5 / ip_ratio=1.40 / aq=1:1.00
    Language : English
    Default : Yes
    Forced : No
    Color range : Limited
    Matrix coefficients : BT.709
    
    Audio
    ID : 2
    Format : DTS XLL
    Format/Info : Digital Theater Systems
    Commercial name : DTS-HD Master Audio
    Codec ID : A_DTS
    Duration : 1 h 24 min
    Bit rate mode : Variable
    Bit rate : 2 435 kb/s
    Channel(s) : 6 channels
    Channel layout : C L R Ls Rs LFE
    Sampling rate : 48.0 kHz
    Frame rate : 93.750 FPS (512 SPF)
    Bit depth : 16 bits
    Compression mode : Lossless
    Stream size : 1.43 GiB (29%)
    Title : Superman.Red.Son.2020.1080p.BluRay.x264.DTS-HD.MA.5.1-FGT
    Default : Yes
    Forced : No
    
    Text #1
    ID : 3
    Format : UTF-8
    Codec ID : S_TEXT/UTF8
    Codec ID/Info : UTF-8 Plain Text
    Duration : 1 h 20 min
    Bit rate : 55 b/s
    Count of elements : 808
    Stream size : 32.4 KiB (0%)
    Title : English-SRT
    Language : English
    Default : Yes
    Forced : No
    
    Text #2
    ID : 4
    Format : PGS
    Muxing mode : zlib
    Codec ID : S_HDMV/PGS
    Codec ID/Info : Picture based subtitle format used on BDs/HD-DVDs
    Duration : 1 h 20 min
    Bit rate : 34.2 kb/s
    Count of elements : 1780
    Stream size : 19.7 MiB (0%)
    Title : English-PGS
    Language : English
    Default : No
    Forced : No
    
    [​IMG]
    Nhấn nút Cảm ơn (dưới chân bài) để thấy link!
     
    Chỉnh sửa cuối: 11/7/20
  15. liemvn2212

    liemvn2212 Well-Known Member

    Tham gia ngày:
    8/6/09
    Bài viết:
    890
    Đã được cảm ơn:
    42,288
    Giới tính:
    Nam
    Nghề nghiệp:
    IT Apprentice
    Nơi ở:
    Sài Gòn
    Justice League Dark: Apokolips War 2020 1080p BluRay x264-WUTANG

    [​IMG]

    [​IMG]
    Mã:
    Justice.League.Dark.Apokolips.War.2020.1080p.BluRay.x264-WUTANG
    
    Date_______: 2020/05/15
    Source_____: BluRay
    Ripper_____: Bobby Digital
    iMDB_______: https://www.imdb.com/title/tt11079148/
    
    Video______: x264 8770 Kb/s @ CRF 19.6 - 1920x1080 - 23.976 FPS
    Source_____: 14983 Kb/s
    Audio______: English DTS-HD MA  5.1
    Commentary AAC 2.0
    
    Subtitles__: English French Spanish Japanese
    
    Duration___: 01:30:11.572
    Size_______: 7256 MB
    
    [​IMG]
    Nhấn nút Cảm ơn (dưới chân bài) để thấy link!
     
  16. liemvn2212

    liemvn2212 Well-Known Member

    Tham gia ngày:
    8/6/09
    Bài viết:
    890
    Đã được cảm ơn:
    42,288
    Giới tính:
    Nam
    Nghề nghiệp:
    IT Apprentice
    Nơi ở:
    Sài Gòn
    Đã fix link.

    Mình không có rồi bạn.

    Đã fix link.

    Đã fix link.

    Đã fix link.

    Đã fix link.

    Đã fix link.

    Đã fix link.

    Đã fix link.

    Đã có link nha bạn.

    Đã fix link.

    Đã fix link.
     
    meonao123 cảm ơn bài này.
  17. liemvn2212

    liemvn2212 Well-Known Member

    Tham gia ngày:
    8/6/09
    Bài viết:
    890
    Đã được cảm ơn:
    42,288
    Giới tính:
    Nam
    Nghề nghiệp:
    IT Apprentice
    Nơi ở:
    Sài Gòn
  18. liemvn2212

    liemvn2212 Well-Known Member

    Tham gia ngày:
    8/6/09
    Bài viết:
    890
    Đã được cảm ơn:
    42,288
    Giới tính:
    Nam
    Nghề nghiệp:
    IT Apprentice
    Nơi ở:
    Sài Gòn
    Deathstroke: Knights and Dragons - The Movie 2020 1080p WEB-DL H264 AC3-EVO

    [​IMG]

    [​IMG]
    Mã:
    RELEASE: Deathstroke Knights and Dragons.The.Movie.2020.1080p.WEB-DL.H264.AC3-EVO
    
    SOURCE: iTunes :)
                                               
    ViDEO: 4630 Kbps - Untouched video file
    
    RESOLUTiON: 1920x1080
    
    RUNTiME: 1h 27m
    
    SUBTiTLES: No.
    
    AUDiO: 384 Kbps AC3 5.1
    
    LANGUAGE: ENGLiSH
    
    ENCODER: MUSE
    
    SPECIAL THANKS TO: DdHD & KING_DVD & HITMAN & SR & Warm & MUSE!                                  
    
    NOTES: Enjoy.      
           
    
    SPECIAL NOTES: If you have something. Contact us. (NEW EMAIL)
    
                       We are looking for: Pre-Retail Supplier
                       Unreleased DVD/BluRay/Web-Dls/R5/CAM/TS
                 If you have something to offer, please contact us:
                                   [email protected]
    
    [​IMG]
    Nhấn nút Cảm ơn (dưới chân bài) để thấy link!
     
  19. HaDucHuy

    HaDucHuy New Member

    Tham gia ngày:
    21/8/11
    Bài viết:
    3
    Đã được cảm ơn:
    6
     
  20. Tarantino

    Tarantino Member

    Tham gia ngày:
    28/5/19
    Bài viết:
    72
    Đã được cảm ơn:
    31
    link die hết rồi
     
    liemvn2212 cảm ơn bài này.

Chia sẻ trang này