Tổng hợp phim 2D được chuyển thể sang 3D bởi N?K

Thảo luận trong '3D' bắt đầu bởi N-K, 13/3/10.

  1. please_helpme

    please_helpme Active Member

    Tham gia ngày:
    20/10/08
    Bài viết:
    0
    Đã được cảm ơn:
    8
    Nghề nghiệp:
    Cave...
    Nơi ở:
    Việt Nam
    Ðề: Tổng hợp phim 2D được chuyển thể sang 3D bởi N?K

    công việc của bác làm Marketing? :))
     
  2. N-K

    N-K New Member

    Tham gia ngày:
    2/3/10
    Bài viết:
    221
    Đã được cảm ơn:
    3
    Ðề: Tổng hợp phim 2D được chuyển thể sang 3D bởi N?K

    ám chỉ tui thích quảng cáo huh ? -.-
     
  3. crazyboy1304

    crazyboy1304 Moderator

    Tham gia ngày:
    30/7/08
    Bài viết:
    468
    Đã được cảm ơn:
    1,128
    Ðề: Tổng hợp phim 2D được chuyển thể sang 3D bởi N?K

    Bạn N?K hình như nổi tiếng bên gamevn phải kô ? Mình cũng tham gia bên đó, mê game lắm. Thứ 7 này đi offline hội thảo 3d nhé. Nội dung có 3d phân cực và shutter đó.
     
  4. N-K

    N-K New Member

    Tham gia ngày:
    2/3/10
    Bài viết:
    221
    Đã được cảm ơn:
    3
    Ðề: Tổng hợp phim 2D được chuyển thể sang 3D bởi N?K

    bên gamevn thì đúng còn nổi tiếng thì không dám :D
    btw để coi tình hình bà con tham dự thế nào đã, đông quá chen lấn tranh giành thì potay. ^^
     
  5. minhvu912

    minhvu912 New Member

    Tham gia ngày:
    26/4/10
    Bài viết:
    7
    Đã được cảm ơn:
    1
    Ðề: Tổng hợp phim 2D được chuyển thể sang 3D bởi N?K

    cảm ơn bác N-K rất nhiều

    không hiểu sao cái IDM của mình chỉ download được file 2G trở xuống, khi phim lớn hơn 2g thì nó chỉ download đủ 2g rồi dừng lại, bác nào biết cách xử lý hay có link download từng phần nhỏ thì chỉ giùm mình, cảm ơn nhiều
     
  6. N-K

    N-K New Member

    Tham gia ngày:
    2/3/10
    Bài viết:
    221
    Đã được cảm ơn:
    3
    Ðề: Tổng hợp phim 2D được chuyển thể sang 3D bởi N?K

    dự tính ngày mai sẽ mở thêm mục chuyển phim 3D Stereoscopic (Side by Side) gốc sang 3D Anaglyph
    lợi ích của nó là mọi người có thể xem bất cứ nơi đâu (PC, HD Player, Projector ...v.v..) mà không cần phải sử dụng soft nào kèm theo. Điểm bất lợi là phải lựa chọn đúng loại phim thích ứng với loại kính bạn có để download
    tuy nhiên đây không phải việc dễ dàng, khó hơn chuyển phim 2D sang 3D Anaglyph nhiều (vì phải dịch ngược ra nguyên bản rồi mới chuyển sang 3D). Nó đòi hỏi sự tỉ mỉ chính xác tuyệt đối. Thời gian đầu có thể tui sẽ gặp nhiều sai sót, mọi người thông cảm xem và đóng góp ý kiến nhé :D
     
  7. N-K

    N-K New Member

    Tham gia ngày:
    2/3/10
    Bài viết:
    221
    Đã được cảm ơn:
    3
    Ðề: Tổng hợp phim 2D được chuyển thể sang 3D bởi N?K

    Trailer How to train your dragon 3D
    (3D Red-Cyan, Amber-Blue/ColorCode, Green-Magenta)
    (HD 1080p) (cập nhật ngày 05-05-2010)

    Hàng 3D thật coi toét mắt nhá các bạn :D

    Hình ảnh minh họa
    [​IMG]

    Thông tin file video

    Mã:
    Format                           : Windows Media
    File size                        : 146 MiB
    Duration                         : 2mn 30s
    Overall bit rate mode            : Constant
    Overall bit rate                 : 8 147 Kbps
    Maximum Overall bit rate         : 8 454 Kbps
    Encoded date                     : UTC 2010-05-04 13:46:08.548
    SfOriginalFPS                    : 300000
    
    Video
    ID                               : 2
    Format                           : VC-1
    Format profile                   : AP@L3
    Codec ID                         : WVC1
    Codec ID/Hint                    : Microsoft
    Description of the codec         : Windows Media Video 9 Advanced Profile
    Duration                         : 2mn 30s
    Bit rate mode                    : Constant
    Bit rate                         : 8 197 Kbps
    Width                            : 1 920 pixels
    Height                           : 1 080 pixels
    Display aspect ratio             : 2.35:1
    Original display aspect ratio    : 16:9
    Frame rate                       : 30.000 fps
    Resolution                       : 8 bits
    Colorimetry                      : 4:2:0
    Scan type                        : Progressive
    Bits/(Pixel*Frame)               : 0.132
    Stream size                      : 147 MiB
    Language                         : English (US)
    
    Audio
    ID                               : 1
    Format                           : WMA
    Format profile                   : Pro
    Codec ID                         : 162
    Codec ID/Info                    : Windows Media Audio
    Description of the codec         : Windows Media Audio 10 Professional - 192 kbps, 48 kHz, 2 channel 16 bit (A/V) 1-pass CBR
    Duration                         : 2mn 30s
    Bit rate mode                    : Constant
    Bit rate                         : 192 Kbps
    Channel(s)                       : 2 channels
    Sampling rate                    : 48.0 KHz
    Resolution                       : 16 bits
    Stream size                      : 3.45 MiB (2%)
    Language                         : English (US)
    
    Link download HD dành cho kính Red-Cyan
    Link tải phim
    http://megashare.vn/dl.php/1172080


    Mirror download HD dành cho kính Red-Cyan
    Link tải phim
    http://www.mediafire.com/?zob1mmawncm


    Link download HD dành cho kính Amber-Blue (ColorCode)
    Link tải phim
    http://megashare.vn/dl.php/1172245


    Mirror download HD dành cho kính Amber-Blue (ColorCode)
    Link tải phim
    http://www.mediafire.com/?tnx2tazijyz


    Link download HD dành cho kính Green-Magenta
    Link tải phim
    http://megashare.vn/dl.php/1173013


    Mirror download HD dành cho kính Green-Magenta
    Link tải phim
    http://www.mediafire.com/?zob1mmawncm

     
    Chỉnh sửa cuối: 5/5/10
  8. N-K

    N-K New Member

    Tham gia ngày:
    2/3/10
    Bài viết:
    221
    Đã được cảm ơn:
    3
    Ðề: Tổng hợp phim 2D được chuyển thể sang 3D bởi N?K

    Trailer Avatar 3D
    (3D Red-Cyan, Amber-Blue/ColorCode, Green-Magenta)
    (HD 1080p) (cập nhật ngày 05-05-2010)

    Hàng 3D thật coi toét mắt nhá các bạn :D

    Hình ảnh minh họa
    [​IMG]

    Thông tin file video

    Mã:
    Format                           : Windows Media
    File size                        : 195 MiB
    Duration                         : 3mn 20s
    Overall bit rate mode            : Constant
    Overall bit rate                 : 8 151 Kbps
    Maximum Overall bit rate         : 8 454 Kbps
    Encoded date                     : UTC 2010-05-04 18:45:04.480
    SfOriginalFPS                    : 300000
    
    Video
    ID                               : 2
    Format                           : VC-1
    Format profile                   : AP@L3
    Codec ID                         : WVC1
    Codec ID/Hint                    : Microsoft
    Description of the codec         : Windows Media Video 9 Advanced Profile
    Duration                         : 3mn 20s
    Bit rate mode                    : Constant
    Bit rate                         : 8 197 Kbps
    Width                            : 1 920 pixels
    Height                           : 1 080 pixels
    Display aspect ratio             : 2.35:1
    Original display aspect ratio    : 16:9
    Frame rate                       : 30.000 fps
    Resolution                       : 8 bits
    Colorimetry                      : 4:2:0
    Scan type                        : Progressive
    Bits/(Pixel*Frame)               : 0.132
    Stream size                      : 196 MiB
    Language                         : English (US)
    
    Audio
    ID                               : 1
    Format                           : WMA
    Format profile                   : Pro
    Codec ID                         : 162
    Codec ID/Info                    : Windows Media Audio
    Description of the codec         : Windows Media Audio 10 Professional - 192 kbps, 48 kHz, 2 channel 16 bit (A/V) 1-pass CBR
    Duration                         : 3mn 20s
    Bit rate mode                    : Constant
    Bit rate                         : 192 Kbps
    Channel(s)                       : 2 channels
    Sampling rate                    : 48.0 KHz
    Resolution                       : 16 bits
    Stream size                      : 4.60 MiB (2%)
    Language                         : English (US)
    
    Link download HD dành cho kính Red-Cyan
    Link tải phim
    http://megashare.vn/dl.php/1173491


    Mirror download HD dành cho kính Red-Cyan
    Link tải phim
    (processing...)


    Link download HD dành cho kính Amber-Blue (ColorCode)
    Link tải phim
    http://megashare.vn/dl.php/1173727


    Mirror download HD dành cho kính Amber-Blue (ColorCode)
    Link tải phim
    (processing...)


    Link download HD dành cho kính Green-Magenta
    Link tải phim
    http://megashare.vn/dl.php/1173963


    Mirror download HD dành cho kính Green-Magenta
    Link tải phim
    (processing...)

     
    Chỉnh sửa cuối: 5/5/10
  9. jk2tuoi

    jk2tuoi Member

    Tham gia ngày:
    7/1/09
    Bài viết:
    48
    Đã được cảm ơn:
    1
    Ðề: Tổng hợp phim 2D được chuyển thể sang 3D bởi N?K

    MÌnh không xem đc avatar bản 3D là sao nhỉ nó chạy có mỗi 5s quảng cáo của bạn rùi dừng :(
     
  10. N-K

    N-K New Member

    Tham gia ngày:
    2/3/10
    Bài viết:
    221
    Đã được cảm ơn:
    3
    Ðề: Tổng hợp phim 2D được chuyển thể sang 3D bởi N?K

    Bạn dùng Window Media Player xem thử xem, nhớ cài trước K-Lite Codec bản mới nhất nha
    Đây là do xung độ của công nghệ bảo vệ video của tui, hix hiện đang bế tắc cách khắc phục :(
     
  11. N-K

    N-K New Member

    Tham gia ngày:
    2/3/10
    Bài viết:
    221
    Đã được cảm ơn:
    3
    Ðề: Tổng hợp phim 2D được chuyển thể sang 3D bởi N?K

    Trailer Monsters Vs Aliens 3D
    (3D Red-Cyan, Amber-Blue/ColorCode, Green-Magenta)
    (HD 1080p) (cập nhật ngày 05-05-2010)

    Hàng 3D thật coi toét mắt nhá các bạn :D
    Trong phim có 1 số đoạn bị drop FPS là do PC của tui cấu hình không đủ tốt để làm việc, mong các bạn thông cảm nhé

    Hình ảnh minh họa
    [​IMG]

    Thông tin file video

    Mã:
    Format                           : Windows Media
    File size                        : 120 MiB
    Duration                         : 2mn 4s
    Overall bit rate mode            : Constant
    Overall bit rate                 : 8 059 Kbps
    Maximum Overall bit rate         : 8 454 Kbps
    Encoded date                     : UTC 2010-05-05 06:39:18.260
    SfOriginalFPS                    : 300000
    
    Video
    ID                               : 2
    Format                           : VC-1
    Format profile                   : AP@L3
    Codec ID                         : WVC1
    Codec ID/Hint                    : Microsoft
    Description of the codec         : Windows Media Video 9 Advanced Profile
    Duration                         : 2mn 4s
    Bit rate mode                    : Constant
    Bit rate                         : 8 197 Kbps
    Width                            : 1 920 pixels
    Height                           : 1 080 pixels
    Display aspect ratio             : 2.35:1
    Original display aspect ratio    : 16:9
    Frame rate                       : 30.000 fps
    Resolution                       : 8 bits
    Colorimetry                      : 4:2:0
    Scan type                        : Progressive
    Bits/(Pixel*Frame)               : 0.132
    Stream size                      : 122 MiB
    Language                         : English (US)
    
    Audio
    ID                               : 1
    Format                           : WMA
    Format profile                   : Pro
    Codec ID                         : 162
    Codec ID/Info                    : Windows Media Audio
    Description of the codec         : Windows Media Audio 10 Professional - 192 kbps, 48 kHz, 2 channel 16 bit (A/V) 1-pass CBR
    Duration                         : 2mn 4s
    Bit rate mode                    : Constant
    Bit rate                         : 192 Kbps
    Channel(s)                       : 2 channels
    Sampling rate                    : 48.0 KHz
    Resolution                       : 16 bits
    Stream size                      : 2.86 MiB (2%)
    Language                         : English (US)
    
    Link download HD dành cho kính Red-Cyan
    Link tải phim
    http://megashare.vn/dl.php/1174228


    Mirror download HD dành cho kính Red-Cyan
    Link tải phim
    (processing...)


    Link download HD dành cho kính Amber-Blue (ColorCode)
    Link tải phim
    http://megashare.vn/dl.php/1174640


    Mirror download HD dành cho kính Amber-Blue (ColorCode)
    Link tải phim
    (processing...)


    Link download HD dành cho kính Green-Magenta
    Link tải phim
    http://megashare.vn/dl.php/1174784


    Mirror download HD dành cho kính Green-Magenta
    Link tải phim
    (processing...)

     
    Chỉnh sửa cuối: 5/5/10
  12. jk2tuoi

    jk2tuoi Member

    Tham gia ngày:
    7/1/09
    Bài viết:
    48
    Đã được cảm ơn:
    1
    Ðề: Tổng hợp phim 2D được chuyển thể sang 3D bởi N?K

    ừ để mìh thử cố lên bạn nhé
     
  13. jk2tuoi

    jk2tuoi Member

    Tham gia ngày:
    7/1/09
    Bài viết:
    48
    Đã được cảm ơn:
    1
    Ðề: Tổng hợp phim 2D được chuyển thể sang 3D bởi N?K

    sặc anh N-K ơi em cài codec bản mới nhất mở bằng windows media mà vẫn không xem đc avatar bản 3D mất toi cả công down phim từ đêm hôm trước đến tận 8h sáng hôm sau rùi :(:)(( anh fix đi
     
  14. N-K

    N-K New Member

    Tham gia ngày:
    2/3/10
    Bài viết:
    221
    Đã được cảm ơn:
    3
    Ðề: Tổng hợp phim 2D được chuyển thể sang 3D bởi N?K

    vậy để tui reup lại vậy
    kỳ lạ thật, test trên máy WMP và MPC chạy rất tốt
    bạn chuẩn bị tinh thần vài bữa nữa redown nhé :D

    p/s tranh thủ xem mấy cái trailer 3D gốc mới up cho đỡ bùn đi :D
     
  15. N-K

    N-K New Member

    Tham gia ngày:
    2/3/10
    Bài viết:
    221
    Đã được cảm ơn:
    3
    Ðề: Tổng hợp phim 2D được chuyển thể sang 3D bởi N?K

    Bikini Girls 3D
    (3D Red-Cyan, Amber-Blue/ColorCode, Green-Magenta)
    (m-HD 1080p) (cập nhật ngày 06-05-2010)

    Hàng 3D thật coi toét mắt nhá các bạn :D
    Xem video tốt nhất trên Window Media Player

    Hình ảnh minh họa
    [​IMG]

    Thông tin file video

    Mã:
    Format                           : Matroska
    File size                        : 87.4 MiB
    Duration                         : 1mn 0s
    Overall bit rate                 : 12.2 Mbps
    Encoded date                     : UTC 2010-05-05 18:44:14
    Writing application              : mkvmerge v3.3.0 ('Language') built on Mar 24 2010 14:59:24
    Writing library                  : libebml v0.8.0 + libmatroska v0.9.0
    
    Video
    ID                               : 1
    Format                           : MPEG-4 Visual
    Format settings, BVOP            : Yes
    Format settings, QPel            : No
    Format settings, GMC             : No warppoints
    Format settings, Matrix          : Default (H.263)
    Codec ID                         : DX50
    Codec ID/Hint                    : DivX 5
    Duration                         : 1mn 0s
    Bit rate                         : 11.8 Mbps
    Width                            : 1 920 pixels
    Height                           : 1 080 pixels
    Display aspect ratio             : 16:9
    Frame rate                       : 29.970 fps
    Resolution                       : 8 bits
    Colorimetry                      : 4:2:0
    Scan type                        : Progressive
    Bits/(Pixel*Frame)               : 0.190
    Stream size                      : 84.7 MiB (97%)
    Title                            : Edit by N?K
    Writing library                  : DivX 3013
    
    Audio
    ID                               : 2
    Format                           : MPEG Audio
    Format version                   : Version 1
    Format profile                   : Layer 3
    Codec ID                         : A_MPEG/L3
    Codec ID/Hint                    : MP3
    Duration                         : 1mn 0s
    Bit rate mode                    : Constant
    Bit rate                         : 128 Kbps
    Channel(s)                       : 2 channels
    Sampling rate                    : 48.0 KHz
    Stream size                      : 939 KiB (1%)
    
    
    
    Link download m-HD dành cho kính Red-Cyan
    Link tải phim
    http://megashare.vn/dl.php/1177399


    Mirror download m-HD dành cho kính Red-Cyan
    Link tải phim
    (processing...)


    Link download m-HD dành cho kính Amber-Blue (ColorCode)
    Link tải phim
    http://megashare.vn/dl.php/1175843


    Mirror download m-HD dành cho kính Amber-Blue (ColorCode)
    Link tải phim
    (processing...)


    Link download m-HD dành cho kính Green-Magenta
    Link tải phim
    http://megashare.vn/dl.php/1175787


    Mirror download m-HD dành cho kính Green-Magenta
    Link tải phim
    (processing...)

     
    Chỉnh sửa cuối: 7/5/10
  16. longxoay

    longxoay Member

    Tham gia ngày:
    14/5/09
    Bài viết:
    66
    Đã được cảm ơn:
    2
    Ðề: Tổng hợp phim 2D được chuyển thể sang 3D bởi N?K

    link red-cyan của Bikini not found bác ơi. test lại bác ơi
     
  17. N-K

    N-K New Member

    Tham gia ngày:
    2/3/10
    Bài viết:
    221
    Đã được cảm ơn:
    3
    Ðề: Tổng hợp phim 2D được chuyển thể sang 3D bởi N?K

    do thằng megashare đang khùng khùng không ổn định, bạn thử lại vào lúc khác nhé
     
  18. Kinh3D

    Kinh3D New Member

    Tham gia ngày:
    23/12/09
    Bài viết:
    971
    Đã được cảm ơn:
    12
    Nghề nghiệp:
    Cung cấp kính 3D
    Ðề: Tổng hợp phim 2D được chuyển thể sang 3D bởi N?K

    Bikini Girls mà hiệu ứng lên tốt xem chắc đẹp lắm đây :D
     
  19. N-K

    N-K New Member

    Tham gia ngày:
    2/3/10
    Bài viết:
    221
    Đã được cảm ơn:
    3
    Ðề: Tổng hợp phim 2D được chuyển thể sang 3D bởi N?K

    cái đó là 3D gốc rồi, không hơn được nữa đâu. Tui chỉ lấy về edit lại xem không cần soft thôi chứ không thêm bớt hiệu ứng gì cả
    tuy nhiên nếu là phim HD thì tốt hơn :D
     
  20. hero_luckyluck

    hero_luckyluck New Member

    Tham gia ngày:
    9/1/10
    Bài viết:
    6
    Đã được cảm ơn:
    1
    Ðề: Tổng hợp phim 2D được chuyển thể sang 3D bởi N?K

    em dow avatar da doi ve, coi duoc co 5s dau tien gioi thieu ve team NK vay chu thot ko koi duoc nua
     

Chia sẻ trang này