[Tội Phạm - Hành Động Police Story 2013 1080p HDRip x264 AC3 SmY - Câu Chuyện Cảnh Sát 6 - (Thành Lo

Thảo luận trong 'WEB-DL, HDTV' bắt đầu bởi huygakon, 26/1/14.

  1. huygakon

    huygakon Một nụ cười, một niềm vui

    Tham gia ngày:
    12/12/11
    Bài viết:
    9,130
    Đã được cảm ơn:
    8,423
    Nghề nghiệp:
    ...
    Nơi ở:
    ...


    Police Story 2013 1080p HDRip x264 AC3 SmY
    Thành Long, Cảnh Điềm

    Câu Chuyện Cảnh Sát 6
    Ratings: 6,7/10 from 386 users

    [​IMG]


    [​IMG]
    Police Story 2013 là tập phim thứ 6 trong series cùng tên do Thành Long thực hiện với vai trò sản xuất, đạo diễn kiêm diễn viên chính từ năm 1985 đến nay. Phần phim mới nhất bắt đầu từ một đêm trong một quán rượu, tất cả khách trong quán đều bị bắt ép làm con tin, trong đó có cả cảnh sát Chung Văn (Thành Long) và một cô gái tên Miêu Miêu (Cảnh Điềm). Chủ quán rượu Võ Giang bắt con tin nhằm mục đích yêu cầu thả một tên tội phạm khét tiếng bị giam nhiều năm. Tên tội phạm bí ẩn đó là ai, tay cảnh sát lão làng sẽ làm gì, kẻ chết người sống sẽ là ai?

    [​IMG]
    [video=youtube;QIlXIu9tNL0]http://www.youtube.com/watch?feature=player_embedded&v=QIlXIu9tNL0[/video]

    [​IMG]
    [​IMG]

    [​IMG]

    [​IMG]

    [​IMG]



    [​IMG]
    Mã:
    Video
    ID                               : 1
    Format                           : AVC
    Format/Info                      : Advanced Video Codec
    Format profile                   : [email protected]
    Format settings, CABAC           : Yes
    Format settings, ReFrames        : 2 frames
    Muxing mode                      : Header stripping
    Codec ID                         : V_MPEG4/ISO/AVC
    Duration                         : 1h 46mn
    Bit rate                         : 3 686 Kbps
    Width                            : 1 920 pixels
    Height                           : 1 080 pixels
    Display aspect ratio             : 16:9
    Frame rate mode                  : Variable
    Frame rate                       : 25.000 fps
    Color space                      : YUV
    Chroma subsampling               : 4:2:0
    Bit depth                        : 8 bits
    Scan type                        : Progressive
    Bits/(Pixel*Frame)               : 0.071
    Stream size                      : 2.74 GiB (93%)
    Writing library                  : avc encoder v1.9
    Audio
    ID                               : 2
    Format                           : AC-3
    Format/Info                      : Audio Coding 3
    Mode extension                   : CM (complete main)
    Muxing mode                      : Header stripping
    Codec ID                         : A_AC3
    Duration                         : 1h 46mn
    Bit rate mode                    : Constant
    Bit rate                         : 192 Kbps
    Channel(s)                       : 2 channels
    Channel positions                : Front: L R
    Sampling rate                    : 44.1 KHz
    Bit depth                        : 16 bits
    Compression mode                 : Lossy
    Stream size                      : 146 MiB (5%)


    [​IMG]
    ~2.9GB
    Nhấn nút Cảm ơn (dưới chân bài) để thấy link!



    [​IMG]
    Tổng Hợp Phim Năm 2014

     
    Chỉnh sửa cuối: 4/2/14
    heosuasunrang, kien2016890 and fsvnhd like this.
  2. narnia

    narnia New Member

    Tham gia ngày:
    27/3/10
    Bài viết:
    1
    Đã được cảm ơn:
    0
    Ðề: [Tội Phạm - Hành Động Police Story 2013 1080p HDRip x264 AC3 SmY - Câu Chuyện Cảnh Sát 6 - (Thành Long, Cảnh Điềm)

    down về chờ Vietsub. Cám ơn bạn nhìu nhé!
     
  3. sonicspeed

    sonicspeed Well-Known Member

    Tham gia ngày:
    29/9/09
    Bài viết:
    1,469
    Đã được cảm ơn:
    5,377
    Giới tính:
    Nam
    Ðề: [Tội Phạm - Hành Động Police Story 2013 1080p HDRip x264 AC3 SmY - Câu Chuyện Cảnh Sát 6 - (Thành Long, Cảnh Điềm)

    Quá nhanh,đúng chất TQ :))
     
  4. huygakon

    huygakon Một nụ cười, một niềm vui

    Tham gia ngày:
    12/12/11
    Bài viết:
    9,130
    Đã được cảm ơn:
    8,423
    Nghề nghiệp:
    ...
    Nơi ở:
    ...
    Ðề: [Tội Phạm - Hành Động Police Story 2013 1080p HDRip x264 AC3 SmY - Câu Chuyện Cảnh Sát 6 - (Thành Long, Cảnh Điềm)

    Anh đi coi hả, sau vụ này em thề không xem phim khựa ngoài rạp nữa =))
     
  5. henryduc96

    henryduc96 SuperHD Internal HDBits

    Tham gia ngày:
    18/5/13
    Bài viết:
    6,144
    Đã được cảm ơn:
    21,007
    Nơi ở:
    Viet Nam
    nổi lửa chờ sub việt thui ^^
     
  6. theaminh81

    theaminh81 Well-Known Member

    Tham gia ngày:
    31/10/11
    Bài viết:
    2,738
    Đã được cảm ơn:
    854
    Ðề: [Tội Phạm - Hành Động Police Story 2013 1080p HDRip x264 AC3 SmY - Câu Chuyện Cảnh Sát 6 - (Thành Long, Cảnh Điềm)

    có audio chưa pác ơi
     
  7. huygakon

    huygakon Một nụ cười, một niềm vui

    Tham gia ngày:
    12/12/11
    Bài viết:
    9,130
    Đã được cảm ơn:
    8,423
    Nghề nghiệp:
    ...
    Nơi ở:
    ...
    Ðề: [Tội Phạm - Hành Động Police Story 2013 1080p HDRip x264 AC3 SmY - Câu Chuyện Cảnh Sát 6 - (Thành Long, Cảnh Điềm)

    Chưa có bác à, cứ từ từ đi, hehe :D
     
  8. Hamelio Musica

    Hamelio Musica Active Member

    Tham gia ngày:
    13/6/12
    Bài viết:
    374
    Đã được cảm ơn:
    209
    Ðề: Re: [Tội Phạm - Hành Động Police Story 2013 1080p HDRip x264 AC3 SmY - Câu Chuyện Cảnh Sát 6 - (Thành Long, Cảnh Điềm)

    Đón xem phụ đề đi:
    Phụ đề Câu Chuyện Cảnh Sát 6 (2013) - Subteam: Homesub.vn
     
  9. huygakon

    huygakon Một nụ cười, một niềm vui

    Tham gia ngày:
    12/12/11
    Bài viết:
    9,130
    Đã được cảm ơn:
    8,423
    Nghề nghiệp:
    ...
    Nơi ở:
    ...
    Ðề: [Tội Phạm - Hành Động Police Story 2013 1080p HDRip x264 AC3 SmY - Câu Chuyện Cảnh Sát 6 - (Thành Long, Cảnh Điềm)

    Đã có sub :x mời anh em vô chén :D
     
  10. huygakon

    huygakon Một nụ cười, một niềm vui

    Tham gia ngày:
    12/12/11
    Bài viết:
    9,130
    Đã được cảm ơn:
    8,423
    Nghề nghiệp:
    ...
    Nơi ở:
    ...
  11. mrhanh

    mrhanh New Member

    Tham gia ngày:
    27/9/11
    Bài viết:
    17
    Đã được cảm ơn:
    0
    sao nói TL giải nghệ rồi?
     
  12. huygakon

    huygakon Một nụ cười, một niềm vui

    Tham gia ngày:
    12/12/11
    Bài viết:
    9,130
    Đã được cảm ơn:
    8,423
    Nghề nghiệp:
    ...
    Nơi ở:
    ...
    Ðề: Re: [Tội Phạm - Hành Động Police Story 2013 1080p HDRip x264 AC3 SmY - Câu Chuyện Cảnh Sát 6 - (Thành Long, Cảnh Điềm)

    Cùng câu hỏi với bác :)
     
  13. inickme

    inickme Member

    Tham gia ngày:
    28/8/11
    Bài viết:
    57
    Đã được cảm ơn:
    2

Chia sẻ trang này