流星語 - The Kid - Lời của Sao Băng 1999.DVD.2Audio.720P - Phụ Đề

Thảo luận trong 'mHD, SD' bắt đầu bởi duongminhngau, 30/11/19.

  1. duongminhngau

    duongminhngau Well-Known Member

    Tham gia ngày:
    7/12/11
    Bài viết:
    685
    Đã được cảm ơn:
    9,022
    Giới tính:
    Nam
    流星語 - Lưu Tinh Ngữ - The Kid 1999 - Lời của Sao Băng 1999
    (Trương Quốc Vinh - Địch Long - Ngô Gia Lệ)


    [​IMG]

    THÔNG TIN FILE

    Mã:
    Complete name               : D:\Film HD\流星語.1999.DVD.2Audio.720P.mkv
    Format                      : Matroska
    Format version              : Version 4
    File size                   : 4.48 GiB
    Duration                    : 1 h 50 min
    Overall bit rate            : 5 798 kb/s
    Movie name                  : 流星語 (1999)
    Encoded date                : UTC 2019-11-29 19:27:03
    Writing application         : mkvmerge v8.2.0 ('World of Adventure') 64bit
    
    
    Writing library             : libebml v1.3.1 + libmatroska v1.4.2
    Video
    ID                          : 1
    Format                      : AVC
    Format/Info                 : Advanced Video Codec
    Format profile              : [email protected]
    Format settings             : 1 Ref Frames
    Format settings, CABAC      : No
    Format settings, Reference  : 1 frame
    Format settings, GOP        : M=1, N=14
    Codec ID                    : V_MPEG4/ISO/AVC
    Duration                    : 1 h 50 min
    Bit rate                    : 5 000 kb/s
    Width                       : 1 280 pixels
    Height                      : 720 pixels
    Display aspect ratio        : 16:9
    Frame rate mode             : Constant
    Frame rate                  : 29.970 (30000/1001) FPS
    Color space                 : YUV
    Chroma subsampling          : 4:2:0
    Bit depth                   : 8 bits
    Scan type                   : Progressive
    Bits/(Pixel*Frame)          : 0.181
    Stream size                 : 3.88 GiB (87%)
    Title                       : CHN
    Writing library             : x264 core 118
    Encoding settings           : cabac=0 / ref=1 / deblock=1:0:0 / analyse=0x1:0x111 / me=dia / subme=0 / psy=0 / mixed_ref=0 / me_range=16 / chroma_me=1 / trellis=0 / 8x8dct=0 / cqm=0 / deadzone=21,11 / fast_pskip=1 / chroma_qp_offset=0 / threads=4 / sliced_threads=0 / nr=0 / decimate=1 / interlaced=0 / bluray_compat=0 / constrained_intra=0 / bframes=0 / weightp=0 / keyint=14 / keyint_min=1 / scenecut=0 / intra_refresh=0 / rc=abr / mbtree=0 / bitrate=5000 / ratetol=1.0 / qcomp=0.60 / qpmin=10 / qpmax=51 / qpstep=4 / ip_ratio=1.40 / aq=0
    Language                    : Chinese
    Default                     : Yes
    Forced                      : No
    Audio #1
    ID                          : 2
    Format                      : AC-3
    Format/Info                 : Audio Coding 3
    Commercial name             : Dolby Digital
    Codec ID                    : A_AC3
    Duration                    : 1 h 50 min
    Bit rate mode               : Constant
    Bit rate                    : 384 kb/s
    Channel(s)                  : 3 channels
    Channel layout              : L R LFE
    Sampling rate               : 48.0 kHz
    Frame rate                  : 31.250 FPS (1536 SPF)
    Compression mode            : Lossy
    Stream size                 : 304 MiB (7%)
    Title                       : 粤语
    Language                    : Chinese
    Service kind                : Complete Main
    Default                     : Yes
    Forced                      : No
    Audio #2
    ID                          : 3
    Format                      : AC-3
    Format/Info                 : Audio Coding 3
    Commercial name             : Dolby Digital
    Codec ID                    : A_AC3
    Duration                    : 1 h 50 min
    Bit rate mode               : Constant
    Bit rate                    : 384 kb/s
    Channel(s)                  : 3 channels
    Channel layout              : L R LFE
    Sampling rate               : 48.0 kHz
    Frame rate                  : 31.250 FPS (1536 SPF)
    Compression mode            : Lossy
    Stream size                 : 304 MiB (7%)
    Title                       : 国语
    Language                    : Chinese
    Service kind                : Complete Main
    Default                     : No
    Forced                      : No
    



    NỘI DUNG PHIM

    Cô gái trẻ Lương Hoàng Quân bị chồng bỏ rơi, bí mật đặt con trai mới sinh của mình lên một chiếc du thuyền sang trọng, hy vọng con mình sẽ được người giàu có nhận nuôi, và nó có thể lớn lên trong một môi trường sống tốt hơn.

    Nhà môi giới chứng khoán Lý Triệu Vinh, người vừa mất tất cả trong cuộc khủng hoảng tài chính, đã gặp sinh linh nhỏ bé này, Vinh quyết định tạm thời nhận nuôi đứa bé mồ côi.

    Tiểu Minh, bốn tuổi, lớn lên trong sự chăm sóc yêu thương của Vinh, rất hiếu động và ngoan ngoãn. Hai người sống ở căn nhà gỗ trên tầng thượng tại Viện Dưỡng Lão. Vinh luôn xem Tiểu Minh như con ruột, tuy cuộc sống khó khăn nhưng tràn đầy tình cảm yêu thương.

    Bốn năm đổi thay, Quân trở thành Chủ Tịch của Quỹ từ thiện, nhưng cô không bao giờ quên ký ức đau đớn đã qua, cô có một nỗi sợ hãi không thể giải thích được khi tiếp xúc với những đứa trẻ. Để bù đắp tội lỗi từ bỏ con mình, cô đặt hết đam mê của mình vào phúc lợi xã hội, đặc biệt là những trẻ em cơ nhỡ.

    Để hỗ trợ Lan, người đang muốn đổi Viện Dưỡng Lão của mình thành Nhà Trẻ cho trẻ em lang thang, Quân đã gặp Vinh và vô tình tiếp xúc con trai ruột Tiểu Minh của mình. Mặc dù không biết thân phận của nhau nhưng cảm thấy gắn bó vô cùng.

    Sếp Long Cảnh Sát, người biết tất cả mọi thứ trong Quận, phải cay đắng thuyết phục Vinh thay đổi lối sống tự do và giản dị của mình, để Tiểu Minh có thể trưởng thành một cách tự nhiên. Quân cũng ngầm trách Vinh, vì không nghĩ đến tương lai của con trẻ, khiến Vinh rất bực mình.

    Trong một vụ tai nạn giao thông, mọi người vì muốn giúp đỡ Cha con Vinh thì tình cờ phát hiện Tiểu Minh không phải con ruột của Vinh. Đã xuất hiện những lời buộc tội Vinh không quan tâm và ngược đãi Tiểu Minh. Ý tốt của mọi người đã đẩy mọi chuyện đi quá xa, khiến cho Vinh phải tuyệt vọng chống cự.

    Cuối cùng, Vinh biết Quân chính là Mẹ ruột của Tiểu Minh. Mặc dù anh không sẵn lòng, nhưng vẫn quyết định trao Tiểu Minh lại cho Quân nuôi nấng , vì hạnh phúc của Tiểu Minh…


    LINK DOWN


    Nhấn nút Cảm ơn (dưới chân bài) để thấy link!


    LINK PHỤ ĐỀ


     
    Chỉnh sửa cuối: 30/11/19

Chia sẻ trang này