[MULTI] [Sci-Fi] The Mandalorian (2019-2023 Tuyển Tập) WEB-DL DDP5.1 Atmos H.264 (Vietsub) [1080P-4K]

Thảo luận trong 'Phim bộ - Series' bắt đầu bởi kamenrider1997, 6/1/24.

  1. kamenrider1997

    kamenrider1997 Well-Known Member

    Tham gia ngày:
    21/4/12
    Bài viết:
    954
    Đã được cảm ơn:
    16,204
    The Mandalorian - Người Mandalore (2019-2023 Tuyển Tập) (Vietsub) [1080P-4K]
    [​IMG]

    【 INFO 】
    Loạt phim lấy bối cảnh 3 năm sau các sự kiện của phần phim Sự trở lại của Jedi và trước Star Wars: Thần lực thức tỉnh, theo bước chân của một tay súng Mandalorian đơn độc ở nơi xa tầm với của nền Cộng hòa Mới.

    Folder gồm:

    Season 01: 08 tập với chất lượng FullHD và 4K
    Season 02: 08 tập với chất lượng FullHD và 4K
    Season 03: 08 tập với chất lượng FullHD và 4K

    【 MEDIA INFO 】
    HTML:
    General
    Unique ID                                : 280605133784220032688675863517091493226 (0xD31A953D8C036843392C736981A2756A)
    Complete name                            : The.Mandalorian.S03E01.Chapter.17.1080p.DSNP.WEB-DL.DDP5.1.Atmos.H.264-playWEB [B9FD0E3B].mkv
    
    
    Format                                   : Matroska
    
    
    Format version                           : Version 4
    File size                                : 1.67 GiB
    Duration                                 : 35 min 16 s
    Overall bit rate mode                    : Variable
    Overall bit rate                         : 6 779 kb/s
    Frame rate                               : 24.000 FPS
    Encoded date                             : 2023-12-29 04:55:24 UTC
    Writing application                      : mkvmerge v66.0.0 ('Josie') 64-bit
    Writing library                          : libebml v1.4.2 + libmatroska v1.6.4
    Video
    ID                                       : 1
    Format                                   : AVC
    Format/Info                              : Advanced Video Codec
    Format profile                           : High@L4
    Format settings                          : CABAC / 4 Ref Frames
    Format settings, CABAC                   : Yes
    Format settings, Reference frames        : 4 frames
    Codec ID                                 : V_MPEG4/ISO/AVC
    Duration                                 : 35 min 16 s
    Bit rate mode                            : Variable
    Bit rate                                 : 6 007 kb/s
    Maximum bit rate                         : 12.7 Mb/s
    Width                                    : 1 920 pixels
    Height                                   : 1 080 pixels
    Display aspect ratio                     : 16:9
    Frame rate mode                          : Constant
    Frame rate                               : 24.000 FPS
    Color space                              : YUV
    Chroma subsampling                       : 4:2:0
    Bit depth                                : 8 bits
    Scan type                                : Progressive
    Bits/(Pixel*Frame)                       : 0.121
    Time code of first frame                 : 00:00:00:0000000000
    Stream size                              : 1.48 GiB (89%)
    Default                                  : Yes
    Forced                                   : No
    Color range                              : Limited
    Color primaries                          : BT.709
    Transfer characteristics                 : BT.709
    Matrix coefficients                      : BT.709
    Audio
    ID                                       : 2
    Format                                   : E-AC-3 JOC
    Format/Info                              : Enhanced AC-3 with Joint Object Coding
    Commercial name                          : Dolby Digital Plus with Dolby Atmos
    Codec ID                                 : A_EAC3
    Duration                                 : 35 min 16 s
    Bit rate mode                            : Constant
    Bit rate                                 : 768 kb/s
    Channel(s)                               : 6 channels
    Channel layout                           : L R C LFE Ls Rs
    Sampling rate                            : 48.0 kHz
    Frame rate                               : 31.250 FPS (1536 SPF)
    Compression mode                         : Lossy
    Stream size                              : 194 MiB (11%)
    Language                                 : English
    Service kind                             : Complete Main
    Default                                  : Yes
    Forced                                   : No
    Complexity index                         : 16
    Number of dynamic objects                : 15
    Bed channel count                        : 1 channel
    Bed channel configuration                : LFE
    Text #1
    ID                                       : 3
    Format                                   : UTF-8
    Codec ID                                 : S_TEXT/UTF8
    Codec ID/Info                            : UTF-8 Plain Text
    Duration                                 : 32 min 30 s
    Bit rate                                 : 62 b/s
    Frame rate                               : 0.159 FPS
    Count of elements                        : 311
    Stream size                              : 15.0 KiB (0%)
    Language                                 : Vietnamese
    Default                                  : Yes
    Forced                                   : Yes
    Menu
    00:00:04.000                             : en:Recap
    00:00:55.625                             : en:Scene 1
    00:33:52.958                             : en:Credits

    【 SCREENSHOT 】
    [​IMG]
    [​IMG]
    [​IMG]

    [​IMG]
    Download:
    Nhấn nút Cảm ơn (dưới chân bài) để thấy link!

    Phim bộ tổng hợp (TV Series):
    Nhấn nút Cảm ơn (dưới chân bài) để thấy link!


    ***TỔNG HỢP PHIM/NHẠC/SÁCH***

    Nhấn nút Cảm ơn (dưới chân bài) để thấy link!


    DANH SÁCH PHIM MỚI CẬP NHẬT LIÊN TỤC:
    Nhấn nút Cảm ơn (dưới chân bài) để thấy link!


    [​IMG]
    Download:
    Nhấn nút Cảm ơn (dưới chân bài) để thấy link!

    Phim bộ tổng hợp (TV Series):
    Nhấn nút Cảm ơn (dưới chân bài) để thấy link!


    ***TỔNG HỢP PHIM/NHẠC/SÁCH***
    Nhấn nút Cảm ơn (dưới chân bài) để thấy link!
     
    Chỉnh sửa cuối: 6/2/24
    SnowRyu, ktethien, BlueSea and 19 others like this.

Chia sẻ trang này