[Sci-Fi] Justice League (2 Bản 2017 Và 2021) BluRay DD+Atmos 7.1 x264 (Vietsub) [1080P-4K]

Thảo luận trong 'Fshare.vn' bắt đầu bởi kamenrider1997, 27/2/24.

  1. kamenrider1997

    kamenrider1997 Well-Known Member

    Tham gia ngày:
    21/4/12
    Bài viết:
    954
    Đã được cảm ơn:
    16,204
    Justice League - Liên Minh Công Lý (2 Bản 2017 Và 2021) (Vietsub) [1080P-4K]
    [​IMG]

    【 INFO 】
    Liên Minh Công Lý là câu chuyện xuất phát từ hành động xả thân của Superman, Batman quyết định bắt tay với Wonder Woman. Họ cùng nhau tập hợp nên một đội ngũ siêu nhân để chống lại hiểm họa mới đang trỗi dậy. Cuối cùng, dường như tất cả là quá muộn để cứu Trái đất khỏi một cuộc hủy diệt.

    Folder gồm:

    (Vietsub) Justice League 2017 1080p Blu-ray Remux AVC Atmos - KRaLiMaRKo-KM
    (Vietsub) Justice League.2017.2160p.UHD.BluRay.TrueHD7.1.Atmos.x265-HQMUX-KM
    (Vietsub) Zack Snyder's Justice League 2021 1080p BluRay DD+Atmos 7.1 x264-LoRD-KM
    (Vietsub) Zack.Snyders.Justice.League.2021.2160p.UHD.BluRay.Atmos.HDR.x265-W4NK3R-KM

    【 MEDIA INFO 】
    HTML:
    General
    Unique ID                                : 75046123916066558919011320242438304981 (0x38755B93EE9E5B33A4E0D026E00A74D5)
    Complete name                            : (Vietsub) Zack Snyder's Justice League 2021 1080p BluRay DD+Atmos 7.1 x264-LoRD-KM.mkv
    
    
    Format                                   : Matroska
    Format version                           : Version 4
    File size                                : 29.2 GiB
    Duration                                 : 4 h 2 min
    Overall bit rate                         : 17.2 Mb/s
    Frame rate                               : 23.976 FPS
    Encoded date                             : 2024-02-25 19:13:30 UTC
    Writing application                      : mkvmerge v82.0 ('I'm The President') 64-bit
    Writing library                          : libebml v1.4.5 + libmatroska v1.7.1
    Video
    ID                                       : 1
    Format                                   : AVC
    Format/Info                              : Advanced Video Codec
    Format profile                           : [email protected]
    Format settings                          : CABAC / 5 Ref Frames
    Format settings, CABAC                   : Yes
    Format settings, Reference frames        : 5 frames
    Codec ID                                 : V_MPEG4/ISO/AVC
    Duration                                 : 4 h 2 min
    Bit rate                                 : 15.7 Mb/s
    Width                                    : 1 440 pixels
    Height                                   : 1 080 pixels
    Display aspect ratio                     : 4:3
    Frame rate mode                          : Constant
    Frame rate                               : 23.976 (24000/1001) FPS
    Color space                              : YUV
    Chroma subsampling                       : 4:2:0
    Bit depth                                : 8 bits
    Scan type                                : Progressive
    Bits/(Pixel*Frame)                       : 0.422
    Stream size                              : 26.6 GiB (91%)
    Writing library                          : x264 core 163 r3059+61M TMod->LoRD                             
    Encoding settings                        : cabac=1 / ref=5 / deblock=1:-3:-3 / analyse=0x3:0x133 / me=umh / subme=10 / psy=1 / fade_compensate=0.00 / psy_rd=1.00:0.00 / mixed_ref=1 / me_range=24 / chroma_me=1 / trellis=2 / 8x8dct=1 / cqm=0 / deadzone=21,11 / fast_pskip=0 / chroma_qp_offset=-2 / threads=12 / lookahead_threads=2 / sliced_threads=0 / nr=0 / decimate=0 / interlaced=0 / bluray_compat=0 / constrained_intra=0 / fgo=0 / bframes=9 / b_pyramid=2 / b_adapt=2 / b_bias=0 / direct=3 / weightb=1 / open_gop=0 / weightp=2 / keyint=250 / keyint_min=23 / scenecut=40 / intra_refresh=0 / rc_lookahead=60 / rc=crf / mbtree=0 / crf=17.0000 / qcomp=0.66 / qpmin=0:0:0 / qpmax=69:69:69 / qpstep=4 / vbv_maxrate=62500 / vbv_bufsize=78125 / crf_max=0.0 / nal_hrd=none / filler=0 / ip_ratio=1.20 / pb_ratio=1.20 / aq=3:0.75 / aq-sensitivity=10.00 / aq-factor=1.00:1.00:1.00 / aq2=0 / aq3=0
    Language                                 : English
    Default                                  : Yes
    Forced                                   : No
    Color range                              : Limited
    Color primaries                          : BT.709
    Transfer characteristics                 : BT.709
    Matrix coefficients                      : BT.709
    Audio
    ID                                       : 2
    Format                                   : E-AC-3 JOC
    Format/Info                              : Enhanced AC-3 with Joint Object Coding
    Commercial name                          : Dolby Digital Plus with Dolby Atmos
    Format profile                           : Blu-ray Disc
    Codec ID                                 : A_EAC3
    Duration                                 : 4 h 2 min
    Bit rate mode                            : Constant
    Bit rate                                 : 1 512 kb/s
    Channel(s)                               : 8 channels
    Channel layout                           : L R C LFE Ls Rs Tfl Tfr
    Sampling rate                            : 48.0 kHz
    Frame rate                               : 31.250 FPS (1536 SPF)
    Compression mode                         : Lossy
    Stream size                              : 2.56 GiB (9%)
    Title                                    : DD+Atmos 7.1
    Language                                 : English
    Service kind                             : Complete Main
    Default                                  : Yes
    Forced                                   : No
    Complexity index                         : 16
    Number of dynamic objects                : 15
    Bed channel count                        : 1 channel
    Bed channel configuration                : LFE
    Text #1
    ID                                       : 3
    Format                                   : UTF-8
    Codec ID                                 : S_TEXT/UTF8
    Codec ID/Info                            : UTF-8 Plain Text
    Duration                                 : 3 h 46 min
    Bit rate                                 : 32 b/s
    Frame rate                               : 0.147 FPS
    Count of elements                        : 1999
    Stream size                              : 54.4 KiB (0%)
    Language                                 : English
    Default                                  : No
    Forced                                   : No
    Text #2
    ID                                       : 4
    Format                                   : UTF-8
    Codec ID                                 : S_TEXT/UTF8
    Codec ID/Info                            : UTF-8 Plain Text
    Duration                                 : 4 h 0 min
    Bit rate                                 : 41 b/s
    Frame rate                               : 0.192 FPS
    Count of elements                        : 2779
    Stream size                              : 72.7 KiB (0%)
    Title                                    : SDH
    Language                                 : English
    Default                                  : No
    Forced                                   : No
    Text #3
    ID                                       : 5
    Format                                   : UTF-8
    Codec ID                                 : S_TEXT/UTF8
    Codec ID/Info                            : UTF-8 Plain Text
    Duration                                 : 3 h 52 min
    Bit rate                                 : 34 b/s
    Frame rate                               : 0.135 FPS
    Count of elements                        : 1892
    Stream size                              : 58.1 KiB (0%)
    Language                                 : Turkish
    Default                                  : No
    Forced                                   : No
    Text #4
    ID                                       : 6
    Format                                   : UTF-8
    Codec ID                                 : S_TEXT/UTF8
    Codec ID/Info                            : UTF-8 Plain Text
    Duration                                 : 4 h 1 min
    Bit rate                                 : 45 b/s
    Frame rate                               : 0.144 FPS
    Count of elements                        : 2079
    Stream size                              : 81.1 KiB (0%)
    Language                                 : Vietnamese
    Default                                  : Yes
    Forced                                   : No
    Menu
    00:00:00.000                             : en:Chapter 01
    00:08:55.034                             : en:Chapter 02
    00:19:56.737                             : en:Chapter 03
    00:36:54.712                             : en:Chapter 04
    00:41:32.031                             : en:Chapter 05
    00:50:18.641                             : en:Chapter 06
    00:58:42.644                             : en:Chapter 07
    01:08:35.695                             : en:Chapter 08
    01:20:27.823                             : en:Chapter 09
    01:30:05.317                             : en:Chapter 10
    01:40:28.606                             : en:Chapter 11
    01:51:24.177                             : en:Chapter 12
    01:59:06.931                             : en:Chapter 13
    02:07:56.294                             : en:Chapter 14
    02:21:58.528                             : en:Chapter 01
    02:29:50.124                             : en:Chapter 02
    02:37:27.289                             : en:Chapter 03
    02:48:36.374                             : en:Chapter 04
    02:53:19.699                             : en:Chapter 05
    03:09:54.109                             : en:Chapter 06
    03:21:28.970                             : en:Chapter 07
    03:34:12.483                             : en:Chapter 08
    03:40:10.048                             : en:Chapter 09
    03:50:47.477                             : en:Chapter 10

    【 SCREENSHOT 】
    [​IMG]
    [​IMG]
    [​IMG]

    [​IMG]
    Download:
    Nhấn nút Cảm ơn (dưới chân bài) để thấy link!

    Tổng hợp Phim Bom Tấn DC:
    Nhấn nút Cảm ơn (dưới chân bài) để thấy link!

    Tổng hợp phim Bom tấn:
    Nhấn nút Cảm ơn (dưới chân bài) để thấy link!


    ***TỔNG HỢP PHIM/NHẠC/SÁCH***
    Nhấn nút Cảm ơn (dưới chân bài) để thấy link!


    DANH SÁCH PHIM MỚI CẬP NHẬT LIÊN TỤC:
    Nhấn nút Cảm ơn (dưới chân bài) để thấy link!


    [​IMG]
    Download:
    Nhấn nút Cảm ơn (dưới chân bài) để thấy link!

    Tổng hợp Phim Bom Tấn DC:
    Nhấn nút Cảm ơn (dưới chân bài) để thấy link!

    Tổng hợp phim Bom tấn:
    Nhấn nút Cảm ơn (dưới chân bài) để thấy link!


    ***TỔNG HỢP PHIM/NHẠC/SÁCH***
    Nhấn nút Cảm ơn (dưới chân bài) để thấy link!
     

Chia sẻ trang này