[MULTI] [Sci-Fi] Justice League (2 Bản 2017 Và 2021) BluRay Atmos HDR x265 (Vietsub) [4K]

Thảo luận trong '4K' bắt đầu bởi kamenrider1997, 27/2/24.

  1. kamenrider1997

    kamenrider1997 Well-Known Member

    Tham gia ngày:
    21/4/12
    Bài viết:
    954
    Đã được cảm ơn:
    16,205
    Justice League - Liên Minh Công Lý (2 Bản 2017 Và 2021) (Vietsub) [1080P-4K]
    [​IMG]

    【 INFO 】
    Liên Minh Công Lý là câu chuyện xuất phát từ hành động xả thân của Superman, Batman quyết định bắt tay với Wonder Woman. Họ cùng nhau tập hợp nên một đội ngũ siêu nhân để chống lại hiểm họa mới đang trỗi dậy. Cuối cùng, dường như tất cả là quá muộn để cứu Trái đất khỏi một cuộc hủy diệt.

    Folder gồm:

    (Vietsub) Justice League 2017 1080p Blu-ray Remux AVC Atmos - KRaLiMaRKo-KM
    (Vietsub) Justice League.2017.2160p.UHD.BluRay.TrueHD7.1.Atmos.x265-HQMUX-KM
    (Vietsub) Zack Snyder's Justice League 2021 1080p BluRay DD+Atmos 7.1 x264-LoRD-KM
    (Vietsub) Zack.Snyders.Justice.League.2021.2160p.UHD.BluRay.Atmos.HDR.x265-W4NK3R-KM

    【 MEDIA INFO 】
    HTML:
    General
    Unique ID                                : 329818579097326975702498096618940442841 (0xF820BF6DD8C82323080F657DF95CA8D9)
    Complete name                            : (Vietsub) Zack.Snyders.Justice.League.2021.2160p.UHD.BluRay.Atmos.HDR.x265-W4NK3R-KM.mkv
    
    
    Format                                   : Matroska
    Format version                           : Version 4
    File size                                : 49.9 GiB
    Duration                                 : 4 h 2 min
    Overall bit rate mode                    : Variable
    Overall bit rate                         : 29.5 Mb/s
    Frame rate                               : 23.976 FPS
    Movie name                               : Zack.Snyders.Justice.League.2021.2160p.UHD.BluRay.ATMOS.HDR.x265-W4NK3R
    Encoded date                             : 2024-02-25 21:50:46 UTC
    Writing application                      : mkvmerge v82.0 ('I'm The President') 64-bit
    Writing library                          : libebml v1.4.5 + libmatroska v1.7.1
    Video
    ID                                       : 1
    Format                                   : HEVC
    Format/Info                              : High Efficiency Video Coding
    Format profile                           : Main [email protected]@High
    HDR format                               : SMPTE ST 2086, HDR10 compatible
    Codec ID                                 : V_MPEGH/ISO/HEVC
    Duration                                 : 4 h 2 min
    Bit rate                                 : 25.7 Mb/s
    Width                                    : 2 880 pixels
    Height                                   : 2 160 pixels
    Display aspect ratio                     : 4:3
    Frame rate mode                          : Constant
    Frame rate                               : 23.976 (24000/1001) FPS
    Color space                              : YUV
    Chroma subsampling                       : 4:2:0 (Type 2)
    Bit depth                                : 10 bits
    Bits/(Pixel*Frame)                       : 0.172
    Stream size                              : 43.5 GiB (87%)
    Title                                    : Zack.Snyders.Justice.League.2021.2160p.UHD.BluRay.ATMOS.HDR.x265-W4NK3R
    Writing library                          : x265 3.5+9-bf91444e0:[Windows][GCC 10.2.1][64 bit] 10bit
    Encoding settings                        : cpuid=1111039 / frame-threads=6 / numa-pools=32 / wpp / no-pmode / no-pme / no-psnr / no-ssim / log-level=2 / input-csp=1 / input-res=2880x2160 / interlace=0 / total-frames=348504 / level-idc=51 / high-tier=1 / uhd-bd=0 / ref=4 / no-allow-non-conformance / repeat-headers / annexb / aud / no-eob / no-eos / no-hrd / info / hash=0 / no-temporal-layers / open-gop / min-keyint=23 / keyint=250 / gop-lookahead=0 / bframes=8 / b-adapt=2 / b-pyramid / bframe-bias=0 / rc-lookahead=40 / lookahead-slices=4 / scenecut=40 / hist-scenecut=0 / radl=0 / no-splice / no-intra-refresh / ctu=64 / min-cu-size=8 / no-rect / no-amp / max-tu-size=32 / tu-inter-depth=4 / tu-intra-depth=4 / limit-tu=4 / rdoq-level=2 / dynamic-rd=0.00 / no-ssim-rd / signhide / no-tskip / nr-intra=0 / nr-inter=0 / no-constrained-intra / strong-intra-smoothing / max-merge=4 / limit-refs=1 / limit-modes / me=3 / subme=5 / merange=57 / temporal-mvp / no-frame-dup / no-hme / weightp / no-weightb / no-analyze-src-pics / deblock=0:0 / no-sao / no-sao-non-deblock / rd=4 / selective-sao=0 / no-early-skip / rskip / no-fast-intra / no-tskip-fast / no-cu-lossless / no-b-intra / no-splitrd-skip / rdpenalty=0 / psy-rd=2.00 / psy-rdoq=1.00 / no-rd-refine / no-lossless / cbqpoffs=-2 / crqpoffs=-2 / rc=crf / crf=19.3 / qcomp=0.60 / qpstep=4 / stats-write=0 / stats-read=0 / vbv-maxrate=160000 / vbv-bufsize=160000 / vbv-init=0.9 / min-vbv-fullness=50.0 / max-vbv-fullness=80.0 / crf-max=0.0 / crf-min=0.0 / ipratio=1.40 / pbratio=1.30 / aq-mode=2 / aq-strength=1.50 / no-cutree / zone-count=0 / no-strict-cbr / qg-size=32 / no-rc-grain / qpmax=69 / qpmin=0 / no-const-vbv / sar=0 / overscan=0 / videoformat=5 / range=0 / colorprim=9 / transfer=16 / colormatrix=9 / chromaloc=1 / chromaloc-top=2 / chromaloc-bottom=2 / display-window=0 / master-display=G(13250,34500)B(7500,3000)R(34000,16000)WP(15635,16450)L(10000000,1) / cll=597,122 / min-luma=0 / max-luma=1023 / log2-max-poc-lsb=8 / vui-timing-info / vui-hrd-info / slices=1 / no-opt-qp-pps / no-opt-ref-list-length-pps / no-multi-pass-opt-rps / scenecut-bias=0.05 / hist-threshold=0.03 / no-opt-cu-delta-qp / no-aq-motion / hdr10 / hdr10-opt / no-dhdr10-opt / no-idr-recovery-sei / analysis-reuse-level=0 / analysis-save-reuse-level=0 / analysis-load-reuse-level=0 / scale-factor=0 / refine-intra=0 / refine-inter=0 / refine-mv=1 / refine-ctu-distortion=0 / no-limit-sao / ctu-info=0 / no-lowpass-dct / refine-analysis-type=0 / copy-pic=1 / max-ausize-factor=1.0 / no-dynamic-refine / no-single-sei / no-hevc-aq / no-svt / no-field / qp-adaptation-range=1.00 / scenecut-aware-qp=0conformance-window-offsets / right=0 / bottom=0 / decoder-max-rate=0 / no-vbv-live-multi-pass
    Language                                 : English
    Default                                  : Yes
    Forced                                   : No
    Color range                              : Limited
    Color primaries                          : BT.2020
    Transfer characteristics                 : PQ
    Matrix coefficients                      : BT.2020 non-constant
    Mastering display color primaries        : Display P3
    Mastering display luminance              : min: 0.0001 cd/m2, max: 1000 cd/m2
    Maximum Content Light Level              : 597 cd/m2
    Maximum Frame-Average Light Level        : 122 cd/m2
    Audio #1
    ID                                       : 2
    Format                                   : MLP FBA 16-ch
    Format/Info                              : Meridian Lossless Packing FBA with 16-channel presentation
    Commercial name                          : Dolby TrueHD with Dolby Atmos
    Codec ID                                 : A_TRUEHD
    Duration                                 : 4 h 2 min
    Bit rate mode                            : Variable
    Bit rate                                 : 3 157 kb/s
    Maximum bit rate                         : 4 773 kb/s
    Channel(s)                               : 8 channels
    Channel layout                           : L R C LFE Ls Rs Lb Rb
    Sampling rate                            : 48.0 kHz
    Frame rate                               : 1 200.000 FPS (40 SPF)
    Compression mode                         : Lossless
    Stream size                              : 5.34 GiB (11%)
    Language                                 : English
    Default                                  : Yes
    Forced                                   : No
    Number of dynamic objects                : 11
    Bed channel count                        : 1 channel
    Bed channel configuration                : LFE
    Audio #2
    ID                                       : 3
    Format                                   : AC-3
    Format/Info                              : Audio Coding 3
    Commercial name                          : Dolby Digital
    Format settings                          : Dolby Surround EX
    Codec ID                                 : A_AC3
    Duration                                 : 4 h 2 min
    Bit rate mode                            : Constant
    Bit rate                                 : 448 kb/s
    Channel(s)                               : 6 channels
    Channel layout                           : L R C LFE Ls Rs
    Sampling rate                            : 48.0 kHz
    Frame rate                               : 31.250 FPS (1536 SPF)
    Compression mode                         : Lossy
    Stream size                              : 776 MiB (2%)
    Language                                 : English
    Service kind                             : Complete Main
    Default                                  : No
    Forced                                   : No
    Text #1
    ID                                       : 4
    Format                                   : PGS
    Muxing mode                              : zlib
    Codec ID                                 : S_HDMV/PGS
    Codec ID/Info                            : Picture based subtitle format used on BDs/HD-DVDs
    Duration                                 : 4 h 0 min
    Bit rate                                 : 25.8 kb/s
    Frame rate                               : 0.385 FPS
    Count of elements                        : 5558
    Stream size                              : 44.3 MiB (0%)
    Language                                 : English
    Default                                  : No
    Forced                                   : No
    Text #2
    ID                                       : 5
    Format                                   : PGS
    Muxing mode                              : zlib
    Codec ID                                 : S_HDMV/PGS
    Codec ID/Info                            : Picture based subtitle format used on BDs/HD-DVDs
    Duration                                 : 3 h 59 min
    Bit rate                                 : 20.1 kb/s
    Frame rate                               : 0.266 FPS
    Count of elements                        : 3822
    Stream size                              : 34.4 MiB (0%)
    Language                                 : Chinese
    Default                                  : No
    Forced                                   : No
    Text #3
    ID                                       : 6
    Format                                   : PGS
    Muxing mode                              : zlib
    Codec ID                                 : S_HDMV/PGS
    Codec ID/Info                            : Picture based subtitle format used on BDs/HD-DVDs
    Duration                                 : 3 h 51 min
    Bit rate                                 : 19.2 kb/s
    Frame rate                               : 0.274 FPS
    Count of elements                        : 3804
    Stream size                              : 31.7 MiB (0%)
    Language                                 : Chinese
    Default                                  : No
    Forced                                   : No
    Text #4
    ID                                       : 7
    Format                                   : PGS
    Muxing mode                              : zlib
    Codec ID                                 : S_HDMV/PGS
    Codec ID/Info                            : Picture based subtitle format used on BDs/HD-DVDs
    Duration                                 : 3 h 59 min
    Bit rate                                 : 17.7 kb/s
    Frame rate                               : 0.262 FPS
    Count of elements                        : 3762
    Stream size                              : 30.3 MiB (0%)
    Language                                 : Czech
    Default                                  : No
    Forced                                   : No
    Text #5
    ID                                       : 8
    Format                                   : PGS
    Muxing mode                              : zlib
    Codec ID                                 : S_HDMV/PGS
    Codec ID/Info                            : Picture based subtitle format used on BDs/HD-DVDs
    Duration                                 : 3 h 55 min
    Bit rate                                 : 16.8 kb/s
    Frame rate                               : 0.181 FPS
    Count of elements                        : 2552
    Stream size                              : 28.3 MiB (0%)
    Language                                 : Danish
    Default                                  : No
    Forced                                   : No
    Text #6
    ID                                       : 9
    Format                                   : PGS
    Muxing mode                              : zlib
    Codec ID                                 : S_HDMV/PGS
    Codec ID/Info                            : Picture based subtitle format used on BDs/HD-DVDs
    Duration                                 : 3 h 47 min
    Bit rate                                 : 17.1 kb/s
    Frame rate                               : 0.225 FPS
    Count of elements                        : 3070
    Stream size                              : 27.8 MiB (0%)
    Language                                 : Dutch
    Default                                  : No
    Forced                                   : No
    Text #7
    ID                                       : 10
    Format                                   : PGS
    Muxing mode                              : zlib
    Codec ID                                 : S_HDMV/PGS
    Codec ID/Info                            : Picture based subtitle format used on BDs/HD-DVDs
    Duration                                 : 3 h 55 min
    Bit rate                                 : 18.3 kb/s
    Frame rate                               : 0.266 FPS
    Count of elements                        : 3760
    Stream size                              : 30.8 MiB (0%)
    Language                                 : Finnish
    Default                                  : No
    Forced                                   : No
    Text #8
    ID                                       : 11
    Format                                   : PGS
    Muxing mode                              : zlib
    Codec ID                                 : S_HDMV/PGS
    Codec ID/Info                            : Picture based subtitle format used on BDs/HD-DVDs
    Duration                                 : 3 h 55 min
    Bit rate                                 : 16.3 kb/s
    Frame rate                               : 0.250 FPS
    Count of elements                        : 3540
    Stream size                              : 27.5 MiB (0%)
    Language                                 : French
    Default                                  : No
    Forced                                   : No
    Text #9
    ID                                       : 12
    Format                                   : PGS
    Muxing mode                              : zlib
    Codec ID                                 : S_HDMV/PGS
    Codec ID/Info                            : Picture based subtitle format used on BDs/HD-DVDs
    Duration                                 : 3 h 53 min
    Bit rate                                 : 27.7 kb/s
    Frame rate                               : 0.314 FPS
    Count of elements                        : 4396
    Stream size                              : 46.2 MiB (0%)
    Language                                 : German
    Default                                  : No
    Forced                                   : No
    Text #10
    ID                                       : 13
    Format                                   : PGS
    Muxing mode                              : zlib
    Codec ID                                 : S_HDMV/PGS
    Codec ID/Info                            : Picture based subtitle format used on BDs/HD-DVDs
    Duration                                 : 3 h 55 min
    Bit rate                                 : 19.6 kb/s
    Frame rate                               : 0.268 FPS
    Count of elements                        : 3786
    Stream size                              : 33.1 MiB (0%)
    Language                                 : Greek
    Default                                  : No
    Forced                                   : No
    Text #11
    ID                                       : 14
    Format                                   : PGS
    Muxing mode                              : zlib
    Codec ID                                 : S_HDMV/PGS
    Codec ID/Info                            : Picture based subtitle format used on BDs/HD-DVDs
    Duration                                 : 3 h 59 min
    Bit rate                                 : 17.4 kb/s
    Frame rate                               : 0.207 FPS
    Count of elements                        : 2970
    Stream size                              : 29.8 MiB (0%)
    Language                                 : Hungarian
    Default                                  : No
    Forced                                   : No
    Text #12
    ID                                       : 15
    Format                                   : PGS
    Muxing mode                              : zlib
    Codec ID                                 : S_HDMV/PGS
    Codec ID/Info                            : Picture based subtitle format used on BDs/HD-DVDs
    Duration                                 : 3 h 52 min
    Bit rate                                 : 24.9 kb/s
    Frame rate                               : 0.378 FPS
    Count of elements                        : 5282
    Stream size                              : 41.5 MiB (0%)
    Language                                 : Italian
    Default                                  : No
    Forced                                   : No
    Text #13
    ID                                       : 16
    Format                                   : PGS
    Muxing mode                              : zlib
    Codec ID                                 : S_HDMV/PGS
    Codec ID/Info                            : Picture based subtitle format used on BDs/HD-DVDs
    Duration                                 : 3 h 47 min
    Bit rate                                 : 13.2 kb/s
    Frame rate                               : 0.252 FPS
    Count of elements                        : 3433
    Stream size                              : 21.4 MiB (0%)
    Language                                 : Japanese
    Default                                  : No
    Forced                                   : No
    Text #14
    ID                                       : 17
    Format                                   : PGS
    Muxing mode                              : zlib
    Codec ID                                 : S_HDMV/PGS
    Codec ID/Info                            : Picture based subtitle format used on BDs/HD-DVDs
    Duration                                 : 3 h 51 min
    Bit rate                                 : 12.9 kb/s
    Frame rate                               : 0.273 FPS
    Count of elements                        : 3790
    Stream size                              : 21.2 MiB (0%)
    Language                                 : Korean
    Default                                  : No
    Forced                                   : No
    Text #15
    ID                                       : 18
    Format                                   : PGS
    Muxing mode                              : zlib
    Codec ID                                 : S_HDMV/PGS
    Codec ID/Info                            : Picture based subtitle format used on BDs/HD-DVDs
    Duration                                 : 3 h 55 min
    Bit rate                                 : 18.1 kb/s
    Frame rate                               : 0.215 FPS
    Count of elements                        : 3044
    Stream size                              : 30.4 MiB (0%)
    Language                                 : Norwegian
    Default                                  : No
    Forced                                   : No
    Text #16
    ID                                       : 19
    Format                                   : PGS
    Muxing mode                              : zlib
    Codec ID                                 : S_HDMV/PGS
    Codec ID/Info                            : Picture based subtitle format used on BDs/HD-DVDs
    Duration                                 : 3 h 59 min
    Bit rate                                 : 18.8 kb/s
    Frame rate                               : 0.261 FPS
    Count of elements                        : 3744
    Stream size                              : 32.2 MiB (0%)
    Language                                 : Polish
    Default                                  : No
    Forced                                   : No
    Text #17
    ID                                       : 20
    Format                                   : PGS
    Muxing mode                              : zlib
    Codec ID                                 : S_HDMV/PGS
    Codec ID/Info                            : Picture based subtitle format used on BDs/HD-DVDs
    Duration                                 : 3 h 59 min
    Bit rate                                 : 18.5 kb/s
    Frame rate                               : 0.263 FPS
    Count of elements                        : 3782
    Stream size                              : 31.7 MiB (0%)
    Language                                 : Portuguese
    Default                                  : No
    Forced                                   : No
    Text #18
    ID                                       : 21
    Format                                   : PGS
    Muxing mode                              : zlib
    Codec ID                                 : S_HDMV/PGS
    Codec ID/Info                            : Picture based subtitle format used on BDs/HD-DVDs
    Duration                                 : 3 h 55 min
    Bit rate                                 : 18.3 kb/s
    Frame rate                               : 0.258 FPS
    Count of elements                        : 3652
    Stream size                              : 30.8 MiB (0%)
    Language                                 : Romanian
    Default                                  : No
    Forced                                   : No
    Text #19
    ID                                       : 22
    Format                                   : PGS
    Muxing mode                              : zlib
    Codec ID                                 : S_HDMV/PGS
    Codec ID/Info                            : Picture based subtitle format used on BDs/HD-DVDs
    Duration                                 : 3 h 59 min
    Bit rate                                 : 18.8 kb/s
    Frame rate                               : 0.264 FPS
    Count of elements                        : 3784
    Stream size                              : 32.2 MiB (0%)
    Language                                 : Spanish
    Default                                  : No
    Forced                                   : No
    Text #20
    ID                                       : 23
    Format                                   : PGS
    Muxing mode                              : zlib
    Codec ID                                 : S_HDMV/PGS
    Codec ID/Info                            : Picture based subtitle format used on BDs/HD-DVDs
    Duration                                 : 3 h 59 min
    Bit rate                                 : 17.8 kb/s
    Frame rate                               : 0.208 FPS
    Count of elements                        : 2980
    Stream size                              : 30.4 MiB (0%)
    Language                                 : Spanish
    Default                                  : No
    Forced                                   : No
    Text #21
    ID                                       : 24
    Format                                   : PGS
    Muxing mode                              : zlib
    Codec ID                                 : S_HDMV/PGS
    Codec ID/Info                            : Picture based subtitle format used on BDs/HD-DVDs
    Duration                                 : 3 h 55 min
    Bit rate                                 : 16.5 kb/s
    Frame rate                               : 0.256 FPS
    Count of elements                        : 3622
    Stream size                              : 27.8 MiB (0%)
    Language                                 : Swedish
    Default                                  : No
    Forced                                   : No
    Text #22
    ID                                       : 25
    Format                                   : UTF-8
    Codec ID                                 : S_TEXT/UTF8
    Codec ID/Info                            : UTF-8 Plain Text
    Duration                                 : 4 h 1 min
    Bit rate                                 : 45 b/s
    Frame rate                               : 0.144 FPS
    Count of elements                        : 2079
    Stream size                              : 81.1 KiB (0%)
    Language                                 : Vietnamese
    Default                                  : Yes
    Forced                                   : No
    Menu
    00:00:00.000                             : Chapter 1
    00:08:54.951                             : Part 1: "Don't Count On It, Batman"
    00:19:56.737                             : Chapter 3
    00:36:54.671                             : Part 2: The Age Of Heroes
    00:41:32.031                             : Chapter 5
    00:50:18.641                             : Chapter 6
    00:58:42.644                             : Chapter 7
    01:08:35.737                             : Part 3: Beloved Mother, Beloved Son
    01:20:27.990                             : Chapter 9
    01:30:05.317                             : Chapter 10
    01:40:28.606                             : Chapter 11
    01:51:24.177                             : Part 4: "Change Machine"
    01:59:06.931                             : Chapter 13
    02:07:56.294                             : Chapter 14
    02:21:58.510                             : Part 5: All The King's Horses
    02:29:50.106                             : Chapter 16
    02:37:27.271                             : Chapter 17
    02:48:36.356                             : Chapter 18
    02:53:19.681                             : Part 6: "Something Darker"
    03:09:54.091                             : Chapter 20
    03:21:28.952                             : Chapter 21
    03:34:12.214                             : Epilogue: A Father Twice Over
    03:40:10.030                             : Chapter 23
    03:50:47.459                             : Chapter 24
    03:53:28.786                             : End Credits

    【 SCREENSHOT 】
    [​IMG]
    [​IMG]
    [​IMG]

    [​IMG]
    Download:
    Nhấn nút Cảm ơn (dưới chân bài) để thấy link!

    Tổng hợp Phim Bom Tấn DC:
    Nhấn nút Cảm ơn (dưới chân bài) để thấy link!

    Tổng hợp phim Bom tấn:
    Nhấn nút Cảm ơn (dưới chân bài) để thấy link!


    ***TỔNG HỢP PHIM/NHẠC/SÁCH***
    Nhấn nút Cảm ơn (dưới chân bài) để thấy link!


    DANH SÁCH PHIM MỚI CẬP NHẬT LIÊN TỤC:
    Nhấn nút Cảm ơn (dưới chân bài) để thấy link!


    [​IMG]
    Download:
    Nhấn nút Cảm ơn (dưới chân bài) để thấy link!

    Tổng hợp Phim Bom Tấn DC:
    Nhấn nút Cảm ơn (dưới chân bài) để thấy link!

    Tổng hợp phim Bom tấn:
    Nhấn nút Cảm ơn (dưới chân bài) để thấy link!


    ***TỔNG HỢP PHIM/NHẠC/SÁCH***
    Nhấn nút Cảm ơn (dưới chân bài) để thấy link!
     
    Chỉnh sửa cuối: 27/2/24
    Felix69, silverfox, jinacute and 10 others like this.

Chia sẻ trang này