[MULTI] [Sci-Fi] Constellation - Vũ Trụ Xa Lạ (2024) WEB-DL DDP5.1 HDR H.265 (Vietsub) [4K]

Thảo luận trong 'WEB-DL, HDTV 4K' bắt đầu bởi kamenrider1997, 26/2/24.

  1. kamenrider1997

    kamenrider1997 Well-Known Member

    Tham gia ngày:
    21/4/12
    Bài viết:
    954
    Đã được cảm ơn:
    16,204
    Constellation - Vũ Trụ Xa Lạ (2024) (Vietsub) [1080P-4K]
    [​IMG]

    【 INFO 】
    Sau một sự cố ngoài không gian, Jo trở về trái đất và nhận ra rằng cuộc sống của cô còn thiếu sót những mảnh ghép quan trọng. Do đó, cô quyết định khám phá sự thật về những bí mật của việc du hành vũ trụ và tìm kiếm lại những gì đã mất trong quá khứ của mình.

    Folder gồm:

    03/08 tập với chất lượng FullHD và 4K
    Phim gồm Vietsub và các ngôn ngữ sub khác. Mọi người nhớ chọn ngôn ngữ sub yêu thích trước khi xem nhé! ^^
    Các tập mới sẽ được cập nhật thường xuyên tại post này, mọi người nhớ theo dõi nha! ^^

    【 MEDIA INFO 】
    HTML:
    General
    Unique ID                                : 253686684758819639458547013490582872981 (0xBEDA473C80734259D046263F46D1E395)
    Complete name                            : Constellation.S01E01.The.Wounded.Angel.2160p.ATVP.WEB-DL.DDP5.1.HDR.H.265-NTb.mkv
    Format                                   : Matroska
    
    
    Format version                           : Version 4
    File size                                : 10.2 GiB
    Duration                                 : 58 min 7 s
    Overall bit rate                         : 25.1 Mb/s
    Frame rate                               : 23.976 FPS
    Writing application                      : mkvmerge v81.0 ('Milliontown') 64-bit
    Writing library                          : libebml v1.4.4 + libmatroska v1.7.1
    Video
    ID                                       : 1
    Format                                   : HEVC
    Format/Info                              : High Efficiency Video Coding
    Format profile                           : Main 10@L5@High
    HDR format                               : SMPTE ST 2094 App 4, Version 1, HDR10+ Profile B compatible
    Codec ID                                 : V_MPEGH/ISO/HEVC
    Duration                                 : 58 min 7 s
    Bit rate                                 : 24.3 Mb/s
    Width                                    : 3 840 pixels
    Height                                   : 2 160 pixels
    Display aspect ratio                     : 16:9
    Frame rate mode                          : Constant
    Frame rate                               : 23.976 (24000/1001) FPS
    Color space                              : YUV
    Chroma subsampling                       : 4:2:0 (Type 2)
    Bit depth                                : 10 bits
    Bits/(Pixel*Frame)                       : 0.122
    Stream size                              : 9.86 GiB (97%)
    Default                                  : Yes
    Forced                                   : No
    Color range                              : Limited
    Color primaries                          : BT.2020
    Transfer characteristics                 : PQ
    Matrix coefficients                      : BT.2020 non-constant
    Mastering display color primaries        : Display P3
    Mastering display luminance              : min: 0.0050 cd/m2, max: 1000 cd/m2
    Maximum Content Light Level              : 1105 cd/m2
    Maximum Frame-Average Light Level        : 533 cd/m2
    Audio
    ID                                       : 2
    Format                                   : E-AC-3 JOC
    Format/Info                              : Enhanced AC-3 with Joint Object Coding
    Commercial name                          : Dolby Digital Plus with Dolby Atmos
    Codec ID                                 : A_EAC3
    Duration                                 : 58 min 7 s
    Bit rate mode                            : Constant
    Bit rate                                 : 768 kb/s
    Channel(s)                               : 6 channels
    Channel layout                           : L R C LFE Ls Rs
    Sampling rate                            : 48.0 kHz
    Frame rate                               : 31.250 FPS (1536 SPF)
    Compression mode                         : Lossy
    Stream size                              : 319 MiB (3%)
    Language                                 : English
    Service kind                             : Complete Main
    Default                                  : Yes
    Forced                                   : No
    Complexity index                         : 16
    Number of dynamic objects                : 15
    Bed channel count                        : 1 channel
    Bed channel configuration                : LFE
    Text #1
    ID                                       : 3
    Format                                   : UTF-8
    Codec ID                                 : S_TEXT/UTF8
    Codec ID/Info                            : UTF-8 Plain Text
    Duration                                 : 56 min 14 s
    Bit rate                                 : 2 b/s
    Frame rate                               : 0.011 FPS
    Count of elements                        : 36
    Stream size                              : 1.04 KiB (0%)
    Title                                    : Forced
    Language                                 : English
    Default                                  : Yes
    Forced                                   : Yes
    Text #2
    ID                                       : 4
    Format                                   : UTF-8
    Codec ID                                 : S_TEXT/UTF8
    Codec ID/Info                            : UTF-8 Plain Text
    Duration                                 : 56 min 14 s
    Bit rate                                 : 41 b/s
    Frame rate                               : 0.164 FPS
    Count of elements                        : 552
    Stream size                              : 17.0 KiB (0%)
    Language                                 : English
    Default                                  : No
    Forced                                   : No
    Text #3
    ID                                       : 5
    Format                                   : UTF-8
    Codec ID                                 : S_TEXT/UTF8
    Codec ID/Info                            : UTF-8 Plain Text
    Duration                                 : 56 min 33 s
    Bit rate                                 : 53 b/s
    Frame rate                               : 0.209 FPS
    Count of elements                        : 709
    Stream size                              : 22.0 KiB (0%)
    Title                                    : SDH
    Language                                 : English
    Default                                  : No
    Forced                                   : No
    Text #4
    ID                                       : 6
    Format                                   : UTF-8
    Codec ID                                 : S_TEXT/UTF8
    Codec ID/Info                            : UTF-8 Plain Text
    Duration                                 : 57 min 37 s
    Bit rate                                 : 61 b/s
    Frame rate                               : 0.166 FPS
    Count of elements                        : 575
    Stream size                              : 25.8 KiB (0%)
    Language                                 : Arabic
    Default                                  : No
    Forced                                   : No
    Text #5
    ID                                       : 7
    Format                                   : UTF-8
    Codec ID                                 : S_TEXT/UTF8
    Codec ID/Info                            : UTF-8 Plain Text
    Duration                                 : 57 min 37 s
    Bit rate                                 : 59 b/s
    Frame rate                               : 0.126 FPS
    Count of elements                        : 436
    Stream size                              : 24.9 KiB (0%)
    Language                                 : Bulgarian
    Default                                  : No
    Forced                                   : No
    Text #6
    ID                                       : 8
    Format                                   : UTF-8
    Codec ID                                 : S_TEXT/UTF8
    Codec ID/Info                            : UTF-8 Plain Text
    Duration                                 : 57 min 37 s
    Bit rate                                 : 39 b/s
    Frame rate                               : 0.167 FPS
    Count of elements                        : 577
    Stream size                              : 16.6 KiB (0%)
    Title                                    : Chinese (Simplified)
    Language                                 : Chinese (Simplified)
    Default                                  : No
    Forced                                   : No
    Text #7
    ID                                       : 9
    Format                                   : UTF-8
    Codec ID                                 : S_TEXT/UTF8
    Codec ID/Info                            : UTF-8 Plain Text
    Duration                                 : 57 min 37 s
    Bit rate                                 : 36 b/s
    Frame rate                               : 0.167 FPS
    Count of elements                        : 578
    Stream size                              : 15.4 KiB (0%)
    Title                                    : Chinese (Traditional)
    Language                                 : Chinese (Traditional)
    Default                                  : No
    Forced                                   : No
    Text #8
    ID                                       : 10
    Format                                   : UTF-8
    Codec ID                                 : S_TEXT/UTF8
    Codec ID/Info                            : UTF-8 Plain Text
    Duration                                 : 57 min 37 s
    Bit rate                                 : 39 b/s
    Frame rate                               : 0.160 FPS
    Count of elements                        : 552
    Stream size                              : 16.8 KiB (0%)
    Language                                 : Czech
    Default                                  : No
    Forced                                   : No
    Text #9
    ID                                       : 11
    Format                                   : UTF-8
    Codec ID                                 : S_TEXT/UTF8
    Codec ID/Info                            : UTF-8 Plain Text
    Duration                                 : 57 min 37 s
    Bit rate                                 : 41 b/s
    Frame rate                               : 0.158 FPS
    Count of elements                        : 546
    Stream size                              : 17.7 KiB (0%)
    Language                                 : Danish
    Default                                  : No
    Forced                                   : No
    Text #10
    ID                                       : 12
    Format                                   : UTF-8
    Codec ID                                 : S_TEXT/UTF8
    Codec ID/Info                            : UTF-8 Plain Text
    Duration                                 : 57 min 37 s
    Bit rate                                 : 42 b/s
    Frame rate                               : 0.153 FPS
    Count of elements                        : 528
    Stream size                              : 17.8 KiB (0%)
    Language                                 : German
    Default                                  : No
    Forced                                   : No
    Text #11
    ID                                       : 13
    Format                                   : UTF-8
    Codec ID                                 : S_TEXT/UTF8
    Codec ID/Info                            : UTF-8 Plain Text
    Duration                                 : 57 min 37 s
    Bit rate                                 : 70 b/s
    Frame rate                               : 0.143 FPS
    Count of elements                        : 495
    Stream size                              : 29.6 KiB (0%)
    Language                                 : Greek
    Default                                  : No
    Forced                                   : No
    Text #12
    ID                                       : 14
    Format                                   : UTF-8
    Codec ID                                 : S_TEXT/UTF8
    Codec ID/Info                            : UTF-8 Plain Text
    Duration                                 : 57 min 37 s
    Bit rate                                 : 43 b/s
    Frame rate                               : 0.170 FPS
    Count of elements                        : 588
    Stream size                              : 18.5 KiB (0%)
    Title                                    : Spanish (Latin America)
    Language                                 : Spanish (Latin America)
    Default                                  : No
    Forced                                   : No
    Text #13
    ID                                       : 15
    Format                                   : UTF-8
    Codec ID                                 : S_TEXT/UTF8
    Codec ID/Info                            : UTF-8 Plain Text
    Duration                                 : 57 min 37 s
    Bit rate                                 : 44 b/s
    Frame rate                               : 0.170 FPS
    Count of elements                        : 589
    Stream size                              : 18.6 KiB (0%)
    Title                                    : Spanish (Spain)
    Language                                 : Spanish (ES)
    Default                                  : No
    Forced                                   : No
    Text #14
    ID                                       : 16
    Format                                   : UTF-8
    Codec ID                                 : S_TEXT/UTF8
    Codec ID/Info                            : UTF-8 Plain Text
    Duration                                 : 57 min 37 s
    Bit rate                                 : 39 b/s
    Frame rate                               : 0.164 FPS
    Count of elements                        : 568
    Stream size                              : 16.7 KiB (0%)
    Language                                 : Estonian
    Default                                  : No
    Forced                                   : No
    Text #15
    ID                                       : 17
    Format                                   : UTF-8
    Codec ID                                 : S_TEXT/UTF8
    Codec ID/Info                            : UTF-8 Plain Text
    Duration                                 : 57 min 37 s
    Bit rate                                 : 40 b/s
    Frame rate                               : 0.158 FPS
    Count of elements                        : 547
    Stream size                              : 16.9 KiB (0%)
    Language                                 : Finnish
    Default                                  : No
    Forced                                   : No
    Text #16
    ID                                       : 18
    Format                                   : UTF-8
    Codec ID                                 : S_TEXT/UTF8
    Codec ID/Info                            : UTF-8 Plain Text
    Duration                                 : 57 min 34 s
    Bit rate                                 : 44 b/s
    Frame rate                               : 0.192 FPS
    Count of elements                        : 663
    Stream size                              : 18.7 KiB (0%)
    Title                                    : French (Canada)
    Language                                 : French (CA)
    Default                                  : No
    Forced                                   : No
    Text #17
    ID                                       : 19
    Format                                   : UTF-8
    Codec ID                                 : S_TEXT/UTF8
    Codec ID/Info                            : UTF-8 Plain Text
    Duration                                 : 57 min 34 s
    Bit rate                                 : 44 b/s
    Frame rate                               : 0.192 FPS
    Count of elements                        : 663
    Stream size                              : 18.7 KiB (0%)
    Title                                    : French (France)
    Language                                 : French (FR)
    Default                                  : No
    Forced                                   : No
    Text #18
    ID                                       : 20
    Format                                   : UTF-8
    Codec ID                                 : S_TEXT/UTF8
    Codec ID/Info                            : UTF-8 Plain Text
    Duration                                 : 57 min 37 s
    Bit rate                                 : 55 b/s
    Frame rate                               : 0.167 FPS
    Count of elements                        : 579
    Stream size                              : 23.4 KiB (0%)
    Language                                 : Hebrew
    Default                                  : No
    Forced                                   : No
    Text #19
    ID                                       : 21
    Format                                   : UTF-8
    Codec ID                                 : S_TEXT/UTF8
    Codec ID/Info                            : UTF-8 Plain Text
    Duration                                 : 57 min 37 s
    Bit rate                                 : 105 b/s
    Frame rate                               : 0.168 FPS
    Count of elements                        : 580
    Stream size                              : 44.6 KiB (0%)
    Language                                 : Hindi
    Default                                  : No
    Forced                                   : No
    Text #20
    ID                                       : 22
    Format                                   : UTF-8
    Codec ID                                 : S_TEXT/UTF8
    Codec ID/Info                            : UTF-8 Plain Text
    Duration                                 : 57 min 37 s
    Bit rate                                 : 46 b/s
    Frame rate                               : 0.167 FPS
    Count of elements                        : 577
    Stream size                              : 19.4 KiB (0%)
    Language                                 : Hungarian
    Default                                  : No
    Forced                                   : No
    Text #21
    ID                                       : 23
    Format                                   : UTF-8
    Codec ID                                 : S_TEXT/UTF8
    Codec ID/Info                            : UTF-8 Plain Text
    Duration                                 : 57 min 37 s
    Bit rate                                 : 41 b/s
    Frame rate                               : 0.166 FPS
    Count of elements                        : 575
    Stream size                              : 17.5 KiB (0%)
    Language                                 : Indonesian
    Default                                  : No
    Forced                                   : No
    Text #22
    ID                                       : 24
    Format                                   : UTF-8
    Codec ID                                 : S_TEXT/UTF8
    Codec ID/Info                            : UTF-8 Plain Text
    Duration                                 : 57 min 39 s
    Bit rate                                 : 42 b/s
    Frame rate                               : 0.167 FPS
    Count of elements                        : 576
    Stream size                              : 18.1 KiB (0%)
    Language                                 : Italian
    Default                                  : No
    Forced                                   : No
    Text #23
    ID                                       : 25
    Format                                   : UTF-8
    Codec ID                                 : S_TEXT/UTF8
    Codec ID/Info                            : UTF-8 Plain Text
    Duration                                 : 57 min 38 s
    Bit rate                                 : 33 b/s
    Frame rate                               : 0.163 FPS
    Count of elements                        : 562
    Stream size                              : 14.2 KiB (0%)
    Language                                 : Japanese
    Default                                  : No
    Forced                                   : No
    Text #24
    ID                                       : 26
    Format                                   : UTF-8
    Codec ID                                 : S_TEXT/UTF8
    Codec ID/Info                            : UTF-8 Plain Text
    Duration                                 : 57 min 37 s
    Bit rate                                 : 43 b/s
    Frame rate                               : 0.168 FPS
    Count of elements                        : 581
    Stream size                              : 18.5 KiB (0%)
    Language                                 : Korean
    Default                                  : No
    Forced                                   : No
    Text #25
    ID                                       : 27
    Format                                   : UTF-8
    Codec ID                                 : S_TEXT/UTF8
    Codec ID/Info                            : UTF-8 Plain Text
    Duration                                 : 57 min 37 s
    Bit rate                                 : 44 b/s
    Frame rate                               : 0.167 FPS
    Count of elements                        : 577
    Stream size                              : 18.6 KiB (0%)
    Language                                 : Lithuanian
    Default                                  : No
    Forced                                   : No
    Text #26
    ID                                       : 28
    Format                                   : UTF-8
    Codec ID                                 : S_TEXT/UTF8
    Codec ID/Info                            : UTF-8 Plain Text
    Duration                                 : 57 min 37 s
    Bit rate                                 : 43 b/s
    Frame rate                               : 0.164 FPS
    Count of elements                        : 567
    Stream size                              : 18.3 KiB (0%)
    Language                                 : Latvian
    Default                                  : No
    Forced                                   : No
    Text #27
    ID                                       : 29
    Format                                   : UTF-8
    Codec ID                                 : S_TEXT/UTF8
    Codec ID/Info                            : UTF-8 Plain Text
    Duration                                 : 57 min 37 s
    Bit rate                                 : 41 b/s
    Frame rate                               : 0.166 FPS
    Count of elements                        : 575
    Stream size                              : 17.3 KiB (0%)
    Language                                 : Malay
    Default                                  : No
    Forced                                   : No
    Text #28
    ID                                       : 30
    Format                                   : UTF-8
    Codec ID                                 : S_TEXT/UTF8
    Codec ID/Info                            : UTF-8 Plain Text
    Duration                                 : 57 min 37 s
    Bit rate                                 : 36 b/s
    Frame rate                               : 0.124 FPS
    Count of elements                        : 428
    Stream size                              : 15.5 KiB (0%)
    Language                                 : Dutch
    Default                                  : No
    Forced                                   : No
    Text #29
    ID                                       : 31
    Format                                   : UTF-8
    Codec ID                                 : S_TEXT/UTF8
    Codec ID/Info                            : UTF-8 Plain Text
    Duration                                 : 57 min 37 s
    Bit rate                                 : 39 b/s
    Frame rate                               : 0.164 FPS
    Count of elements                        : 566
    Stream size                              : 16.6 KiB (0%)
    Language                                 : Norwegian
    Default                                  : No
    Forced                                   : No
    Text #30
    ID                                       : 32
    Format                                   : UTF-8
    Codec ID                                 : S_TEXT/UTF8
    Codec ID/Info                            : UTF-8 Plain Text
    Duration                                 : 57 min 37 s
    Bit rate                                 : 39 b/s
    Frame rate                               : 0.161 FPS
    Count of elements                        : 555
    Stream size                              : 16.6 KiB (0%)
    Language                                 : Polish
    Default                                  : No
    Forced                                   : No
    Text #31
    ID                                       : 33
    Format                                   : UTF-8
    Codec ID                                 : S_TEXT/UTF8
    Codec ID/Info                            : UTF-8 Plain Text
    Duration                                 : 57 min 37 s
    Bit rate                                 : 40 b/s
    Frame rate                               : 0.165 FPS
    Count of elements                        : 570
    Stream size                              : 17.3 KiB (0%)
    Title                                    : Portuguese
    Language                                 : Portuguese
    Default                                  : No
    Forced                                   : No
    Text #32
    ID                                       : 34
    Format                                   : UTF-8
    Codec ID                                 : S_TEXT/UTF8
    Codec ID/Info                            : UTF-8 Plain Text
    Duration                                 : 57 min 37 s
    Bit rate                                 : 40 b/s
    Frame rate                               : 0.164 FPS
    Count of elements                        : 567
    Stream size                              : 17.2 KiB (0%)
    Title                                    : Portuguese (Brazil)
    Language                                 : Portuguese (BR)
    Default                                  : No
    Forced                                   : No
    Text #33
    ID                                       : 35
    Format                                   : UTF-8
    Codec ID                                 : S_TEXT/UTF8
    Codec ID/Info                            : UTF-8 Plain Text
    Duration                                 : 57 min 44 s
    Bit rate                                 : 69 b/s
    Frame rate                               : 0.176 FPS
    Count of elements                        : 610
    Stream size                              : 29.3 KiB (0%)
    Language                                 : Russian
    Default                                  : No
    Forced                                   : No
    Text #34
    ID                                       : 36
    Format                                   : UTF-8
    Codec ID                                 : S_TEXT/UTF8
    Codec ID/Info                            : UTF-8 Plain Text
    Duration                                 : 57 min 37 s
    Bit rate                                 : 40 b/s
    Frame rate                               : 0.165 FPS
    Count of elements                        : 572
    Stream size                              : 17.0 KiB (0%)
    Language                                 : Slovak
    Default                                  : No
    Forced                                   : No
    Text #35
    ID                                       : 37
    Format                                   : UTF-8
    Codec ID                                 : S_TEXT/UTF8
    Codec ID/Info                            : UTF-8 Plain Text
    Duration                                 : 57 min 37 s
    Bit rate                                 : 35 b/s
    Frame rate                               : 0.156 FPS
    Count of elements                        : 538
    Stream size                              : 15.0 KiB (0%)
    Language                                 : Slovenian
    Default                                  : No
    Forced                                   : No
    Text #36
    ID                                       : 38
    Format                                   : UTF-8
    Codec ID                                 : S_TEXT/UTF8
    Codec ID/Info                            : UTF-8 Plain Text
    Duration                                 : 57 min 37 s
    Bit rate                                 : 43 b/s
    Frame rate                               : 0.162 FPS
    Count of elements                        : 561
    Stream size                              : 18.2 KiB (0%)
    Language                                 : Swedish
    Default                                  : No
    Forced                                   : No
    Text #37
    ID                                       : 39
    Format                                   : UTF-8
    Codec ID                                 : S_TEXT/UTF8
    Codec ID/Info                            : UTF-8 Plain Text
    Duration                                 : 57 min 37 s
    Bit rate                                 : 119 b/s
    Frame rate                               : 0.167 FPS
    Count of elements                        : 578
    Stream size                              : 50.6 KiB (0%)
    Language                                 : Tamil
    Default                                  : No
    Forced                                   : No
    Text #38
    ID                                       : 40
    Format                                   : UTF-8
    Codec ID                                 : S_TEXT/UTF8
    Codec ID/Info                            : UTF-8 Plain Text
    Duration                                 : 57 min 37 s
    Bit rate                                 : 122 b/s
    Frame rate                               : 0.167 FPS
    Count of elements                        : 579
    Stream size                              : 51.8 KiB (0%)
    Language                                 : Telugu
    Default                                  : No
    Forced                                   : No
    Text #39
    ID                                       : 41
    Format                                   : UTF-8
    Codec ID                                 : S_TEXT/UTF8
    Codec ID/Info                            : UTF-8 Plain Text
    Duration                                 : 57 min 37 s
    Bit rate                                 : 97 b/s
    Frame rate                               : 0.167 FPS
    Count of elements                        : 579
    Stream size                              : 41.1 KiB (0%)
    Language                                 : Thai
    Default                                  : No
    Forced                                   : No
    Text #40
    ID                                       : 42
    Format                                   : UTF-8
    Codec ID                                 : S_TEXT/UTF8
    Codec ID/Info                            : UTF-8 Plain Text
    Duration                                 : 57 min 37 s
    Bit rate                                 : 40 b/s
    Frame rate                               : 0.163 FPS
    Count of elements                        : 563
    Stream size                              : 17.2 KiB (0%)
    Language                                 : Turkish
    Default                                  : No
    Forced                                   : No
    Text #41
    ID                                       : 43
    Format                                   : UTF-8
    Codec ID                                 : S_TEXT/UTF8
    Codec ID/Info                            : UTF-8 Plain Text
    Duration                                 : 57 min 37 s
    Bit rate                                 : 65 b/s
    Frame rate                               : 0.167 FPS
    Count of elements                        : 577
    Stream size                              : 27.5 KiB (0%)
    Language                                 : Ukrainian
    Default                                  : No
    Forced                                   : No
    Text #42
    ID                                       : 44
    Format                                   : UTF-8
    Codec ID                                 : S_TEXT/UTF8
    Codec ID/Info                            : UTF-8 Plain Text
    Duration                                 : 57 min 37 s
    Bit rate                                 : 53 b/s
    Frame rate                               : 0.167 FPS
    Count of elements                        : 577
    Stream size                              : 22.6 KiB (0%)
    Language                                 : Vietnamese
    Default                                  : No
    Forced                                   : No
    Text #43
    ID                                       : 45
    Format                                   : UTF-8
    Codec ID                                 : S_TEXT/UTF8
    Codec ID/Info                            : UTF-8 Plain Text
    Duration                                 : 57 min 37 s
    Bit rate                                 : 34 b/s
    Frame rate                               : 0.167 FPS
    Count of elements                        : 579
    Stream size                              : 14.4 KiB (0%)
    Title                                    : Chinese (Traditional)
    Language                                 : Chinese (Traditional)
    Default                                  : No
    Forced                                   : No

    【 SCREENSHOT 】
    [​IMG]
    [​IMG]
    [​IMG]

    [​IMG]
    Download:
    Nhấn nút Cảm ơn (dưới chân bài) để thấy link!

    Phim bộ tổng hợp (TV Series):
    Nhấn nút Cảm ơn (dưới chân bài) để thấy link!


    ***TỔNG HỢP PHIM/NHẠC/SÁCH***

    Nhấn nút Cảm ơn (dưới chân bài) để thấy link!


    DANH SÁCH PHIM MỚI CẬP NHẬT LIÊN TỤC:
    Nhấn nút Cảm ơn (dưới chân bài) để thấy link!


    [​IMG]
    Download:
    Nhấn nút Cảm ơn (dưới chân bài) để thấy link!

    Phim bộ tổng hợp (TV Series):
    Nhấn nút Cảm ơn (dưới chân bài) để thấy link!


    ***TỔNG HỢP PHIM/NHẠC/SÁCH***
    Nhấn nút Cảm ơn (dưới chân bài) để thấy link!
     
    Chỉnh sửa cuối: 6/4/24
  2. pmega2010

    pmega2010 Active Member

    Tham gia ngày:
    23/2/10
    Bài viết:
    334
    Đã được cảm ơn:
    171
    Thiếu tập 7 chủ shop ơi!
     
  3. kamenrider1997

    kamenrider1997 Well-Known Member

    Tham gia ngày:
    21/4/12
    Bài viết:
    954
    Đã được cảm ơn:
    16,204
    Đang cập nhật nốt mấy tập mới bản 4K á bạn, bản FullHD lên hết rồi nha ^^
     
    pmega2010 cảm ơn bài này.
  4. kamenrider1997

    kamenrider1997 Well-Known Member

    Tham gia ngày:
    21/4/12
    Bài viết:
    954
    Đã được cảm ơn:
    16,204
    Cập nhật Full Season 01.
     
    david64 cảm ơn bài này.

Chia sẻ trang này