[RS/NL/ST/MU/X7/MF] Universal Soldier Regeneration 2009 720p BRRip XviD AC3-Voltage

Thảo luận trong 'mHD, SD' bắt đầu bởi bloodmage478, 12/2/10.

  1. bloodmage478

    bloodmage478 New Member

    Tham gia ngày:
    6/10/09
    Bài viết:
    680
    Đã được cảm ơn:
    6
    Universal Soldier Regeneration 2009 720p BRRip XviD AC3-Voltage
    [​IMG]

    [​IMG][​IMG]
    [​IMG][​IMG]
    DOWNLOAD LINKS

    Netload.in

    Mã:
    http://netfolder.in/0iP24Za/USR.2009.720p.BRRip.XviD.AC3-Voltage
    Rapidshare.com
    Mã:
    http://rapidshare.com/files/349000316/USR.2009.720p.BRRip.XviD.AC3-Voltage_hdarena.ORG.part01.rar
    http://rapidshare.com/files/349000323/USR.2009.720p.BRRip.XviD.AC3-Voltage_hdarena.ORG.part02.rar
    http://rapidshare.com/files/349000460/USR.2009.720p.BRRip.XviD.AC3-Voltage_hdarena.ORG.part03.rar
    http://rapidshare.com/files/349000490/USR.2009.720p.BRRip.XviD.AC3-Voltage_hdarena.ORG.part04.rar
    http://rapidshare.com/files/349000072/USR.2009.720p.BRRip.XviD.AC3-Voltage_hdarena.ORG.part05.rar
    
    
    http://rapidshare.com/files/349000140/USR.2009.720p.BRRip.XviD.AC3-Voltage_hdarena.ORG.part06.rar
    http://rapidshare.com/files/349000132/USR.2009.720p.BRRip.XviD.AC3-Voltage_hdarena.ORG.part07.rar
    http://rapidshare.com/files/349000279/USR.2009.720p.BRRip.XviD.AC3-Voltage_hdarena.ORG.part08.rar
    http://rapidshare.com/files/349000354/USR.2009.720p.BRRip.XviD.AC3-Voltage_hdarena.ORG.part09.rar
    http://rapidshare.com/files/349000300/USR.2009.720p.BRRip.XviD.AC3-Voltage_hdarena.ORG.part10.rar
    http://rapidshare.com/files/349000309/USR.2009.720p.BRRip.XviD.AC3-Voltage_hdarena.ORG.part11.rar
    http://rapidshare.com/files/348999644/USR.2009.720p.BRRip.XviD.AC3-Voltage_hdarena.ORG.part12.rar
    
    Storage.to
    Mã:
    http://www.storage.to/get/AuGKsvSX/USR.2009.720p.BRRip.XviD.AC3-Voltage_hdarena.ORG.part01.rar
    http://www.storage.to/get/9TFEIOTR/USR.2009.720p.BRRip.XviD.AC3-Voltage_hdarena.ORG.part02.rar
    http://www.storage.to/get/ubYgmEK3/USR.2009.720p.BRRip.XviD.AC3-Voltage_hdarena.ORG.part03.rar
    http://www.storage.to/get/5quvTtfS/USR.2009.720p.BRRip.XviD.AC3-Voltage_hdarena.ORG.part04.rar
    http://www.storage.to/get/ExOy81Cx/USR.2009.720p.BRRip.XviD.AC3-Voltage_hdarena.ORG.part05.rar
    http://www.storage.to/get/LAWT3q9F/USR.2009.720p.BRRip.XviD.AC3-Voltage_hdarena.ORG.part06.rar
    http://www.storage.to/get/Pb1lT2SP/USR.2009.720p.BRRip.XviD.AC3-Voltage_hdarena.ORG.part07.rar
    http://www.storage.to/get/DZbEt6Dl/USR.2009.720p.BRRip.XviD.AC3-Voltage_hdarena.ORG.part08.rar
    http://www.storage.to/get/dkd0tt5F/USR.2009.720p.BRRip.XviD.AC3-Voltage_hdarena.ORG.part09.rar
    http://www.storage.to/get/CQ206Q6k/USR.2009.720p.BRRip.XviD.AC3-Voltage_hdarena.ORG.part10.rar
    http://www.storage.to/get/w9iHe20b/USR.2009.720p.BRRip.XviD.AC3-Voltage_hdarena.ORG.part11.rar
    http://www.storage.to/get/JAIjLNzf/USR.2009.720p.BRRip.XviD.AC3-Voltage_hdarena.ORG.part12.rar
    
    
    Megaupload.com
    Mã:
    http://www.megaupload.com/?d=XUZNFQUF
    http://www.megaupload.com/?d=WIUI6Y3J
    http://www.megaupload.com/?d=F906B7WM
    http://www.megaupload.com/?d=ZKG6MEGZ
    http://www.megaupload.com/?d=AKKEEYNG
    http://www.megaupload.com/?d=IP2TWBEP
    http://www.megaupload.com/?d=WCC1543S
    http://www.megaupload.com/?d=ZOMNUPA0
    http://www.megaupload.com/?d=7DNCHMNA
    http://www.megaupload.com/?d=E7HJDTCF
    http://www.megaupload.com/?d=XLGEML99
    http://www.megaupload.com/?d=7AIVIU2Q
    
    Mediafire.com
    Mã:
    http://www.mediafire.com/?25dwmyizajw
    http://www.mediafire.com/download.php?otmcrm5ejmi
    http://www.mediafire.com/?wlm5xmzz4zt
    http://www.mediafire.com/?gmymnmknctg
    http://www.mediafire.com/?g5wjxmrj1gj
    http://www.mediafire.com/?zimzjwy4yqz
    http://www.mediafire.com/?1tlmtd2nizw
    http://www.mediafire.com/?mdwzjl3wmej
    http://www.mediafire.com/?dgndtjfwmkq
    http://www.mediafire.com/?tqdnlnw2mok
    http://www.mediafire.com/?t2jdfjw3kon
    http://www.mediafire.com/download.php?enum2iz2ybq
    
    
    
    PASSWORD
    Mã:
    http://hdarena.org
    Mã:
    
                                                                      Proudly Presents!!!
    
     -----------------------------------------------------------------------------------------------------------  
                            Universal.Soldier.Regeneration.2009.720p.BRRip.XviD.AC3-Voltage  
     -----------------------------------------------------------------------------------------------------------  
    
    
    Source........::: DIMENSION
    Encoder.......::: Zahnzek
    Notes.........::: Done our usual work. Enjoy
    
    
     -----------------------------------------------------------------------------------------------------------  
                                                                              Video                                                                                    
     -----------------------------------------------------------------------------------------------------------  
    
    
    General
    Complete name                    : Universal.Soldier.Regeneration.2009.720p.BRRip.XviD.AC3-Voltage.avi
    Format                           : AVI
    Format/Info                      : Audio Video Interleave
    Format profile                   : OpenDML
    File size                        : 2.20 GiB
    Duration                         : 1h 36mn
    Overall bit rate                 : 3 248 Kbps
    Writing application              : VirtualDubMod 1.5.10.2 (build 2542/release)
    Writing library                  : VirtualDubMod build 2542/release
    
    Video
    Format                           : MPEG-4 Visual
    Format profile                   : AdvancedSimple@L5
    Format settings, BVOP            : Yes
    Format settings, QPel            : No
    Format settings, GMC             : No warppoints
    Format settings, Matrix          : Default (H.263)
    Muxing mode                      : Packed bitstream
    Codec ID                         : XVID
    Codec ID/Hint                    : XviD
    Duration                         : 1h 36mn
    Bit rate                         : 2 788 Kbps
    Width                            : 1 280 pixels
    Height                           : 544 pixels
    Display aspect ratio             : 2.35:1
    Frame rate                       : 23.976 fps
    Resolution                       : 24 bits
    Colorimetry                      : 4:2:0
    Scan type                        : Progressive
    Bits/(Pixel*Frame)               : 0.167
    Stream size                      : 1.89 GiB (86%)
    Writing library                  : XviD 1.2.1 (UTC 2008-12-04)
    
    
    
     -----------------------------------------------------------------------------------------------------------  
    
                                                                              Audio                                                                                  
     -----------------------------------------------------------------------------------------------------------  
    
    Audio
    Format                           : AC-3
    Format/Info                      : Audio Coding 3
    Codec ID                         : 2000
    Duration                         : 1h 36mn
    Bit rate mode                    : Constant
    Bit rate                         : 448 Kbps
    Channel(s)                       : 6 channels
    Channel positions                : Front: L C R, Surround: L R, LFE
    Sampling rate                    : 48.0 KHz
    Stream size                      : 311 MiB (14%)
    Alignment                        : Split accross interleaves
    Interleave, duration             : 42 ms (1.00 video frame)
    Interleave, preload duration     : 500 ms
    
    
    
     -----------------------------------------------------------------------------------------------------------  
                                                                              Info                                                                                    
     -----------------------------------------------------------------------------------------------------------  
    
    
    IMDB LINK....:: http://www.imdb.com/title/tt1288403/
    Audio.............:: English
    Subtitles........:: None
    
    
    
     

Chia sẻ trang này