[Fshare] Rick and Morty (2013) - Season 1-5 1080p HEVC x265

Thảo luận trong 'Phim bộ - Series' bắt đầu bởi hnam31190, 9/11/22.

  1. hnam31190

    hnam31190 Well-Known Member

    Tham gia ngày:
    24/3/10
    Bài viết:
    814
    Đã được cảm ơn:
    4,574
    Collection Serie Film Cartoon của mình 2023 ^ ^ Cố gắng sẽ cover toàn bộ các phim đã phát trên TV từ xưa đến giờ

    Chúc anh em và gia đình có thời gian vui vẻ !!

    #01: Tom & Jerry
    #02: Scooby Doo
    #03: Spongebob Squarepants
    #04: Courage the Cowardly Dog

    #05 Paw Patrol

    #06 PJ Masks
    #07 Looney Tunes
    #08 Flintstones
    #09 Teen Titans
    #10 Teen Titans Go!
    #11 Shaun The Sheep
    #12 Powerpuff Girls
    #13 Rick and Morty


    [​IMG]

    Mã:
    General
    Unique ID                   : 65478259369860573619762268529701340973 (0x3142A76F57434B0D8B213147773AC72D)
    Complete name               : E:\Rick and Morty\Rick and Morty Season 01\S01E03- Anatomy Park.mkv
    Format                      : Matroska
    Format version              : Version 4
    File size                   : 1.28 GiB
    Duration                    : 21 min 55 s
    Overall bit rate mode       : Variable
    Overall bit rate            : 8 342 kb/s
    Movie name                  : Rick and Morty Season 1
    Encoded date                : UTC 2021-06-23 05:58:31
    Writing application         : mkvmerge v53.0.0 ('Fool's Gold') 64-bit
    Writing library             : libebml v1.4.1 + libmatroska v1.6.2
    Cover                       : Yes
    Attachments                 : cover.jpg
    Video
    ID                          : 1
    Format                      : HEVC
    Format/Info                 : High Efficiency Video Coding
    Format profile              : Main 10@L4@Main
    Codec ID                    : V_MPEGH/ISO/HEVC
    Duration                    : 21 min 55 s
    Bit rate                    : 5 916 kb/s
    Width                       : 1 920 pixels
    Height                      : 1 080 pixels
    Display aspect ratio        : 16:9
    Frame rate mode             : Constant
    Frame rate                  : 23.976 (24000/1001) FPS
    Color space                 : YUV
    Chroma subsampling          : 4:2:0
    Bit depth                   : 10 bits
    Bits/(Pixel*Frame)          : 0.119
    Stream size                 : 928 MiB (71%)
    Writing library             : x265 3.5_RC1+2+23-bd060601e:[Windows][GCC 10.2.0][64 bit] 10bit
    Encoding settings           : cpuid=1111039 / frame-threads=4 / numa-pools=24 / wpp / no-pmode / no-pme / no-psnr / no-ssim / log-level=2 / input-csp=1 / input-res=1920x1080 / interlace=0 / total-frames=31548 / level-idc=0 / high-tier=1 / uhd-bd=0 / ref=5 / no-allow-non-conformance / no-repeat-headers / annexb / no-aud / no-hrd / info / hash=0 / no-temporal-layers / open-gop / min-keyint=23 / keyint=250 / gop-lookahead=0 / bframes=8 / b-adapt=2 / b-pyramid / bframe-bias=0 / rc-lookahead=60 / lookahead-slices=1 / scenecut=40 / hist-scenecut=0 / radl=0 / no-splice / no-intra-refresh / ctu=64 / min-cu-size=8 / rect / amp / max-tu-size=32 / tu-inter-depth=4 / tu-intra-depth=4 / limit-tu=0 / rdoq-level=2 / dynamic-rd=0.00 / no-ssim-rd / signhide / tskip / nr-intra=0 / nr-inter=0 / no-constrained-intra / strong-intra-smoothing / max-merge=5 / limit-refs=0 / no-limit-modes / me=3 / subme=5 / merange=92 / temporal-mvp / no-frame-dup / no-hme / weightp / weightb / no-analyze-src-pics / deblock=0:0 / sao / no-sao-non-deblock / rd=6 / selective-sao=4 / no-early-skip / no-rskip / no-fast-intra / no-tskip-fast / no-cu-lossless / b-intra / no-splitrd-skip / rdpenalty=0 / psy-rd=2.00 / psy-rdoq=1.00 / no-rd-refine / no-lossless / cbqpoffs=0 / crqpoffs=0 / rc=crf / crf=18.0 / qcomp=0.60 / qpstep=4 / stats-write=0 / stats-read=0 / ipratio=1.40 / pbratio=1.30 / aq-mode=3 / aq-strength=1.00 / cutree / zone-count=0 / no-strict-cbr / qg-size=32 / no-rc-grain / qpmax=69 / qpmin=0 / no-const-vbv / sar=0 / overscan=0 / videoformat=5 / range=0 / colorprim=2 / transfer=2 / colormatrix=2 / chromaloc=0 / display-window=0 / cll=0,0 / min-luma=0 / max-luma=1023 / log2-max-poc-lsb=8 / vui-timing-info / vui-hrd-info / slices=1 / no-opt-qp-pps / no-opt-ref-list-length-pps / no-multi-pass-opt-rps / scenecut-bias=0.05 / hist-threshold=0.03 / no-opt-cu-delta-qp / no-aq-motion / no-hdr10 / no-hdr10-opt / no-dhdr10-opt / no-idr-recovery-sei / analysis-reuse-level=0 / analysis-save-reuse-level=0 / analysis-load-reuse-level=0 / scale-factor=0 / refine-intra=0 / refine-inter=0 / refine-mv=1 / refine-ctu-distortion=0 / no-limit-sao / ctu-info=0 / no-lowpass-dct / refine-analysis-type=0 / copy-pic=1 / max-ausize-factor=1.0 / no-dynamic-refine / no-single-sei / no-hevc-aq / no-svt / no-field / qp-adaptation-range=1.00 / scenecut-aware-qp=0conformance-window-offsets / right=0 / bottom=0 / decoder-max-rate=0 / no-vbv-live-multi-pass
    Default                     : Yes
    Forced                      : No
    Audio #1
    ID                          : 2
    Format                      : MLP FBA
    Format/Info                 : Meridian Lossless Packing FBA
    Commercial name             : Dolby TrueHD
    Codec ID                    : A_TRUEHD
    Duration                    : 21 min 55 s
    Bit rate mode               : Variable
    Bit rate                    : 2 138 kb/s
    Maximum bit rate            : 3 612 kb/s
    Channel(s)                  : 6 channels
    Channel layout              : L R C LFE Ls Rs
    Sampling rate               : 48.0 kHz
    Frame rate                  : 1 200.000 FPS (40 SPF)
    Compression mode            : Lossless
    Stream size                 : 335 MiB (26%)
    Language                    : English
    Default                     : Yes
    Forced                      : No
    Audio #2
    ID                          : 3
    Format                      : AC-3
    Format/Info                 : Audio Coding 3
    Commercial name             : Dolby Digital
    Codec ID                    : A_AC3
    Duration                    : 21 min 55 s
    Bit rate mode               : Constant
    Bit rate                    : 192 kb/s
    Channel(s)                  : 2 channels
    Channel layout              : L R
    Sampling rate               : 48.0 kHz
    Frame rate                  : 31.250 FPS (1536 SPF)
    Compression mode            : Lossy
    Stream size                 : 30.1 MiB (2%)
    Title                       : Commentary Crew
    Language                    : English
    Service kind                : Complete Main
    Default                     : No
    Forced                      : No
    Text
    ID                          : 4
    Format                      : PGS
    Muxing mode                 : zlib
    Codec ID                    : S_HDMV/PGS
    Codec ID/Info               : Picture based subtitle format used on BDs/HD-DVDs
    Duration                    : 21 min 18 s
    Bit rate                    : 65.9 kb/s
    Frame rate                  : 1.007 FPS
    Count of elements           : 1288
    Stream size                 : 10.0 MiB (1%)
    Title                       : English
    Language                    : English
    Default                     : No
    Forced                      : No
    Menu
    00:00:00.000                : en:Chapter 01
    00:00:32.824                : en:Chapter 02
    00:08:55.868                : en:Chapter 03
    00:20:28.727                : en:Chapter 04
    00:20:58.715                : en:Chapter 05
    

    LINK DOWNLOAD

    [​IMG]

    Nhấn nút Cảm ơn (dưới chân bài) để thấy link!

    Tập nào bị lỗi request mình qua group zalo " gg.gg/zalox265 "

    Nếu tải phim vui lòng để lại comment để topic được lên top và link được sống nhé các bạn !

    Xin đa tạ !

    HAPPY NEW YEAR 2023 !
     
    Chỉnh sửa cuối: 11/1/23
  2. killar

    killar Member

    Tham gia ngày:
    27/6/10
    Bài viết:
    80
    Đã được cảm ơn:
    2
    Cảm ơn bạn, bữa giờ kiếm mà link die hết rồi, tranh thủ kéo lẹ mới đc :D
     
    hnam31190 cảm ơn bài này.
  3. hnam31190

    hnam31190 Well-Known Member

    Tham gia ngày:
    24/3/10
    Bài viết:
    814
    Đã được cảm ơn:
    4,574
    Bữa mới tìm đc ổ cứng cũ :))
     
  4. hnam31190

    hnam31190 Well-Known Member

    Tham gia ngày:
    24/3/10
    Bài viết:
    814
    Đã được cảm ơn:
    4,574
    Update season 6
     
    narwhal cảm ơn bài này.
  5. congluan12358

    congluan12358 Member

    Tham gia ngày:
    20/12/13
    Bài viết:
    75
    Đã được cảm ơn:
    34
    thánk bác, các phim hồi xưa rất hay mong bác tipé tục ạ
     
  6. congluan12358

    congluan12358 Member

    Tham gia ngày:
    20/12/13
    Bài viết:
    75
    Đã được cảm ơn:
    34
    Lmà thêm phineas and ferb luôn bác ơi, phim đó siêu hay
     
  7. hnam31190

    hnam31190 Well-Known Member

    Tham gia ngày:
    24/3/10
    Bài viết:
    814
    Đã được cảm ơn:
    4,574
    Oh quên đó. đang up Ed Edd Eddy với Chip N Dale định tưởng xong rùi
     
    congluan12358 cảm ơn bài này.
  8. K Duy

    K Duy New Member

    Tham gia ngày:
    4/2/15
    Bài viết:
    7
    Đã được cảm ơn:
    2
    Cảm ơn bác nhiều lắm, em tìm hôm bữa giờ mới thấy.:):)
     
  9. shin025

    shin025 New Member

    Tham gia ngày:
    23/9/19
    Bài viết:
    6
    Đã được cảm ơn:
    1
    Cám ơn bác.
    Mà cho em hỏi có file vietsub không vậy ạ? Thấy hardsub tiếng Anh, Pháp mà không có tiếng Việt.
     
  10. nickcat

    nickcat New Member

    Tham gia ngày:
    7/3/10
    Bài viết:
    3
    Đã được cảm ơn:
    0
    Giới tính:
    Nam
    Link die rồi b ơi, fix lại với. Mình cám ơn
     

Chia sẻ trang này