[Fshare] [ Remux 4K|Hành Động] Blade Runner 2049 Open Matte INTERNAL HDR-X DoVi Ver 1 0 4 TrueHD Atmos 7 1-TE

Thảo luận trong 'Bluray Remux 4K' bắt đầu bởi canodinh, 4/11/22.

  1. canodinh

    canodinh Uploader

    Tham gia ngày:
    10/9/11
    Bài viết:
    21,757
    Đã được cảm ơn:
    261,962
    Blade Runner 2049 Open Matte INTERNAL HDR-X DoVi Ver 1 0 4 TrueHD Atmos 7 1-TEKNO3D

    Tội phạm nhân bản

    [​IMG]


    35 năm sau ngày phần đầu tiên ra mắt, Blade Runner trở lại với những gương mặt mới, câu chuyện mới, đầy hứa hẹn vẫn sẽ giữ được cái “chất” khiến thương hiệu này trở thành tác phẩm kinh điển trong lịch sử điện ảnh.

    Blade Runner lấy bối cảnh thế giới tương lai, nơi ô nhiễm môi trường, khủng hoảng lương thực khiến cuộc sống của con người trở thành địa ngục. Để thoát khỏi diệt vong, nhân loại tiến hành khai phá các hành tinh khác trong vũ trụ để thành lập thuộc địa. Họ sử dụng người nhân bản do Eldon Tyrell chế tạo làm nguồn lao động chính. Người nhân bản được tạo ra rất giống với con người, có cảm xúc, suy nghĩ nhưng có tuổi thọ nhất định ở một số phiên bản.


    Blade Runner là lực lượng cảnh sát được thành lập để săn đuổi và tiêu diệt những người nhân bản lẩn trốn trên trái đất. Trong phần trước, các Blade Runner đều là con người. Sang phần phim Blade Runner 2049, các Nexus-9 cũng được tham gia lực lượng này.
    General
    Unique ID : 256533848137782874696912949787711270198 (0xC0FE9F3A96BC9DBDBBF7C337CE6C6D36)
    Complete name : Blade.Runner.2049.Open.Matte.INTERNAL.HDR-X.DoVi.Ver.1.0.4.TrueHD.Atmos.7.1-TEKNO3D.mkv
    Format : Matroska
    Format version : Version 4
    File size : 69.4 GiB
    Duration : 2 h 43 min
    Overall bit rate mode : Variable
    Overall bit rate : 60.8 Mb/s
    Movie name : Blade Runner 2049 - Open Matte - Dolby Vision - ramdom0 sourced - INTERNAL TEKNO3D.com
    Encoded date : UTC 2022-09-09 02:26:57
    Writing application : mkvmerge v67.0.0 ('Under Stars') 64-bit
    Writing library : libebml v1.4.2 + libmatroska v1.6.4
    Attachments : poster

    Video
    ID : 1
    Format : HEVC
    Format/Info : High Efficiency Video Coding
    Format profile : Main [email protected]@High
    HDR format : Dolby Vision, Version 1.0, dvhe.08.06, BL+RPU, HDR10 compatible / SMPTE ST 2086, HDR10 compatible
    Codec ID : V_MPEGH/ISO/HEVC
    Duration : 2 h 43 min
    Bit rate : 55.5 Mb/s
    Width : 3 840 pixels
    Height : 2 160 pixels
    Display aspect ratio : 16:9
    Frame rate mode : Constant
    Frame rate : 23.976 (24000/1001) FPS
    Color space : YUV
    Chroma subsampling : 4:2:0
    Bit depth : 10 bits
    Bits/(Pixel*Frame) : 0.279
    Stream size : 63.3 GiB (91%)
    Title : Blade.Runner.2049.Open.Matte.INTERNAL.HDR-X.DoVi.Ver.1.0.4.TrueHD.Atmos.7.1-TEKNO3D
    Language : English
    Default : Yes
    Forced : No
    Color range : Limited
    Color primaries : BT.2020
    Transfer characteristics : PQ
    Matrix coefficients : BT.2020 non-constant
    Mastering display color primaries : BT.2020
    Mastering display luminance : min: 0.0001 cd/m2, max: 1000 cd/m2
    Maximum Content Light Level : 1000 cd/m2
    Maximum Frame-Average Light Level : 400 cd/m2

    Audio #1
    ID : 2
    Format : MLP FBA 16-ch
    Format/Info : Meridian Lossless Packing FBA with 16-channel presentation
    Commercial name : Dolby TrueHD with Dolby Atmos
    Codec ID : A_TRUEHD
    Duration : 2 h 43 min
    Bit rate mode : Variable
    Bit rate : 4 597 kb/s
    Maximum bit rate : 5 022 kb/s
    Channel(s) : 8 channels
    Channel layout : L R C LFE Ls Rs Lb Rb
    Sampling rate : 48.0 kHz
    Frame rate : 1 200.000 FPS (40 SPF)
    Compression mode : Lossless
    Stream size : 5.25 GiB (8%)
    Language : English
    Default : No
    Forced : No
    Number of dynamic objects : 11
    Bed channel count : 1 channel
    Bed channel configuration : LFE

    Audio #2
    ID : 3
    Format : AC-3
    Format/Info : Audio Coding 3
    Commercial name : Dolby Digital
    Codec ID : A_AC3
    Duration : 2 h 43 min
    Bit rate mode : Constant
    Bit rate : 640 kb/s
    Channel(s) : 6 channels
    Channel layout : L R C LFE Ls Rs
    Sampling rate : 48.0 kHz
    Frame rate : 31.250 FPS (1536 SPF)
    Compression mode : Lossy
    Stream size : 748 MiB (1%)
    Language : English
    Service kind : Complete Main
    Default : No
    Forced : No

    Text #1
    ID : 4
    Format : UTF-8
    Codec ID : S_TEXT/UTF8
    Codec ID/Info : UTF-8 Plain Text
    Duration : 2 h 26 min
    Bit rate : 24 b/s
    Count of elements : 972
    Stream size : 26.7 KiB (0%)
    Language : English
    Default : No
    Forced : No

    Text #2
    ID : 5
    Format : UTF-8
    Codec ID : S_TEXT/UTF8
    Codec ID/Info : UTF-8 Plain Text
    Duration : 2 h 29 min
    Bit rate : 31 b/s
    Count of elements : 1354
    Stream size : 33.9 KiB (0%)
    Title : SDH
    Language : English
    Default : No
    Forced : No

    Menu
    00:00:00.000 : en:Chapter 01
    00:12:36.172 : en:Chapter 02
    00:23:29.116 : en:Chapter 03
    00:37:00.885 : en:Chapter 04
    00:42:50.234 : en:Chapter 05
    00:49:24.503 : en:Chapter 06
    00:58:35.553 : en:Chapter 07
    01:04:10.638 : en:Chapter 08
    01:15:47.251 : en:Chapter 09
    01:25:12.482 : en:Chapter 10
    01:36:15.060 : en:Chapter 11
    01:50:54.773 : en:Chapter 12
    02:01:36.789 : en:Chapter 13
    02:08:40.379 : en:Chapter 14
    02:16:42.319 : en:Chapter 15
    02:27:46.941 : en:Chapter 16




    [​IMG] [​IMG] [​IMG] [​IMG]


    Fshare ~ 69.39GB

    Nhấn nút Cảm ơn (dưới chân bài) để thấy link!


    4Share

    Nhấn nút Cảm ơn (dưới chân bài) để thấy link!


    Sub Việt

    https://subscene.com/subtitles/blade-runner-2049

    Tổng hợp phim 18+

    Link topic https://hdvietnam.xyz/threads/mutil...ng-nhat-ban-au-my-cap-nhat-hang-ngay.1796232/

    Nhấn nút Cảm ơn (dưới chân bài) để thấy link!


    Tổng hợp phim full Menu (Thuyết minh+Sub Việt) bluray (nethd.org)

    Nhấn nút Cảm ơn (dưới chân bài) để thấy link!


    Tổng hợp phim bộ Lồng tiếng, thuyết minh, sub việt

    Nhấn nút Cảm ơn (dưới chân bài) để thấy link!


    Tổng hợp phim hàng ngày

    Link topic https://hdvietnam.xyz/threads/tong-hop-phim-bluray-remux-iso-cap-nhat-hang-ngay.1796055/

    Nhấn nút Cảm ơn (dưới chân bài) để thấy link!


    Tổng hợp phim bluray Remux ISO 4K






    mhd

    720p

    1080p

    Thuyết minh

    Remux 4K https://www.hdvietnam.xyz/threads/r...ruehd-atmos-7-1-dv-hevc-hybrid-remux.1828995/

    Remux 3D https://www.hdvietnam.xyz/threads/r...emux-avc-atmos7-1-auro-3d-11-1-bludr.1878216/

    ISO 4K https://www.hdvietnam.xyz/threads/i...ray-hdr-hevc-truehd-7-1-atmos-suhler.1903848/
     
    Chỉnh sửa cuối: 4/4/24
  2. canodinh

    canodinh Uploader

    Tham gia ngày:
    10/9/11
    Bài viết:
    21,757
    Đã được cảm ơn:
    261,962
  3. canodinh

    canodinh Uploader

    Tham gia ngày:
    10/9/11
    Bài viết:
    21,757
    Đã được cảm ơn:
    261,962
    thay bản Open Matte
     
  4. pmega2010

    pmega2010 Active Member

    Tham gia ngày:
    23/2/10
    Bài viết:
    334
    Đã được cảm ơn:
    171
    Chủ Shop ngày càng lợi hại... Thanks!
     
    canodinh cảm ơn bài này.
  5. legorreta

    legorreta Well-Known Member

    Tham gia ngày:
    10/12/09
    Bài viết:
    235
    Đã được cảm ơn:
    682
    Tải hàng hiệu thôi. Tks
     

Chia sẻ trang này