[Fshare] [Remux 4K| H Động] Jack Reacher 2012 UHD BluRay 2160p DTS-HD MA 7 1 DV HEVC REMUX-FraMeSToR

Thảo luận trong 'Bluray Remux 4K' bắt đầu bởi canodinh, 2/2/23.

  1. canodinh

    canodinh Uploader

    Tham gia ngày:
    10/9/11
    Bài viết:
    19,839
    Đã được cảm ơn:
    240,384
    mới có DV 11/4/23


    Jack Reacher 2012 UHD BluRay 2160p DTS-HD MA 7 1 DV HEVC REMUX-FraMeSToR

    [​IMG]




    A homicide investigator digs deeper into a case involving a trained military sniper who shot five random victims.


    General
    Unique ID : 92002713583000012086794533493098075081 (0x453713FEB7CEB5A64A26D195DD5AD3C9)
    Complete name : C:\phim\Jack.Reacher.2012.UHD.BluRay.2160p.DTS-HD.MA.7.1.DV.HEVC.REMUX-FraMeSToR.mkv
    Format : Matroska
    Format version : Version 4
    File size : 51.5 GiB
    Duration : 2 h 10 min
    Overall bit rate mode : Variable
    Overall bit rate : 56.5 Mb/s
    Movie name : Jack Reacher (2012) DV
    Encoded date : UTC 2021-06-04 17:04:08
    Writing application : mkvmerge v55.0.0 ('Waiting For Space') 64-bit
    Writing library : libebml v1.4.2 + libmatroska v1.6.4
    IMDB : tt0790724
    TMDB : movie/75780

    Video
    ID : 1
    ID in the original source medium : 4113 (0x1011)
    Format : HEVC
    Format/Info : High Efficiency Video Coding
    Format profile : Main [email protected]@High
    HDR format : Dolby Vision, Version 1.0, dvhe.07.06, BL+EL+RPU, Blu-ray compatible / SMPTE ST 2086, HDR10 compatible
    Codec ID : V_MPEGH/ISO/HEVC
    Duration : 2 h 10 min
    Bit rate : 50.0 Mb/s
    Width : 3 840 pixels
    Height : 2 160 pixels
    Display aspect ratio : 16:9
    Frame rate mode : Constant
    Frame rate : 23.976 (24000/1001) FPS
    Color space : YUV
    Chroma subsampling : 4:2:0 (Type 2)
    Bit depth : 10 bits
    Bits/(Pixel*Frame) : 0.251
    Stream size : 45.5 GiB (89%)
    Default : Yes
    Forced : No
    Color range : Limited
    Color primaries : BT.2020
    Transfer characteristics : PQ
    Matrix coefficients : BT.2020 non-constant
    Mastering display color primaries : Display P3
    Mastering display luminance : min: 0.0001 cd/m2, max: 1000 cd/m2
    Original source medium : Blu-ray

    Audio #1
    ID : 2
    Format : DTS XLL
    Format/Info : Digital Theater Systems
    Commercial name : DTS-HD Master Audio
    Codec ID : A_DTS
    Duration : 2 h 10 min
    Bit rate mode : Variable
    Bit rate : 4 176 kb/s
    Channel(s) : 8 channels
    Channel layout : C L R LFE Lb Rb Lss Rss
    Sampling rate : 48.0 kHz
    Frame rate : 93.750 FPS (512 SPF)
    Bit depth : 24 bits
    Compression mode : Lossless
    Stream size : 3.80 GiB (7%)
    Title : DTS-HD MA 7.1
    Language : English
    Default : Yes
    Forced : No

    Audio #2
    ID : 3
    Format : AC-3
    Format/Info : Audio Coding 3
    Commercial name : Dolby Digital
    Codec ID : A_AC3
    Duration : 2 h 10 min
    Bit rate mode : Constant
    Bit rate : 224 kb/s
    Channel(s) : 2 channels
    Channel layout : L R
    Sampling rate : 48.0 kHz
    Frame rate : 31.250 FPS (1536 SPF)
    Compression mode : Lossy
    Stream size : 209 MiB (0%)
    Title : Commentary by Director/Writer Christopher McQuarrie and Actor Tom Cruise
    Language : English
    Service kind : Complete Main
    Default : No
    Forced : No

    Audio #3
    ID : 4
    Format : AC-3
    Format/Info : Audio Coding 3
    Commercial name : Dolby Digital
    Codec ID : A_AC3
    Duration : 2 h 10 min
    Bit rate mode : Constant
    Bit rate : 224 kb/s
    Channel(s) : 2 channels
    Channel layout : L R
    Sampling rate : 48.0 kHz
    Frame rate : 31.250 FPS (1536 SPF)
    Compression mode : Lossy
    Stream size : 209 MiB (0%)
    Title : Commentary by Composer Joe Kraemer
    Language : English
    Service kind : Complete Main
    Default : No
    Forced : No

    Text #1
    ID : 5
    Format : PGS
    Codec ID : S_HDMV/PGS
    Codec ID/Info : Picture based subtitle format used on BDs/HD-DVDs
    Duration : 1 h 59 min
    Bit rate : 33.3 kb/s
    Count of elements : 2862
    Stream size : 28.5 MiB (0%)
    Title : English
    Language : English
    Default : No
    Forced : No

    Text #2
    ID : 6
    Format : PGS
    Codec ID : S_HDMV/PGS
    Codec ID/Info : Picture based subtitle format used on BDs/HD-DVDs
    Duration : 2 h 2 min
    Bit rate : 34.1 kb/s
    Count of elements : 3062
    Stream size : 30.0 MiB (0%)
    Title : English (SDH)
    Language : English
    Default : No
    Forced : No

    [​IMG] [​IMG]
    [​IMG] [​IMG]
    [​IMG] [​IMG]

    Fshare ~ 51.46GB

    Nhấn nút Cảm ơn (dưới chân bài) để thấy link!


    4Share

    Nhấn nút Cảm ơn (dưới chân bài) để thấy link!


    Sub Việt

    https://subscene.com/subtitles/jack-reacher

    Tổng hợp phim 18+

    Link topic https://hdvietnam.xyz/threads/mutil...ng-nhat-ban-au-my-cap-nhat-hang-ngay.1796232/
    Nhấn nút Cảm ơn (dưới chân bài) để thấy link!


    Tổng hợp phim full Menu (Thuyết minh+Sub Việt) bluray (nethd.org)

    Nhấn nút Cảm ơn (dưới chân bài) để thấy link!


    Tổng hợp phim bộ Lồng tiếng, thuyết minh, sub việt

    Nhấn nút Cảm ơn (dưới chân bài) để thấy link!


    Tổng hợp phim hàng ngày

    Link topic https://hdvietnam.xyz/threads/tong-hop-phim-bluray-remux-iso-cap-nhat-hang-ngay.1796055/



    Nhấn nút Cảm ơn (dưới chân bài) để thấy link!




    Tổng hợp phim bluray Remux ISO 4K




    Mhd

    720p

    1080p

    Thuyết minh

    Remux

    ISO
     
    Chỉnh sửa cuối: 11/4/23
  2. canodinh

    canodinh Uploader

    Tham gia ngày:
    10/9/11
    Bài viết:
    19,839
    Đã được cảm ơn:
    240,384
    Jack Reacher 2012 UHD BluRay 2160p DTS-HD MA 7 1 HEVC REMUX-FraMeSToR

    [​IMG]




    A homicide investigator digs deeper into a case involving a trained military sniper who shot five random victims.


    Jack.Reacher.2012.UHD.BluRay.2160p.DTS-HD.MA.7.1.HEVC.REMUX-FraMeSToR


    GENERAL INFO
    SOURCE : UHD Blu-ray Disc TERMiNAL (Thanks!)
    FORMAT : MKV (Matroska)
    SIZE : 46.2 GiB
    DURATION : 02:10:24 (h:m:s)
    CHAPTERS : Numbered (01-18)
    IMDB : https://www.imdb.com/title/tt0790724/

    VIDEO
    CODEC : HEVC
    TYPE : 2160p
    FRAME RATE : 23.976 fps
    DISPLAY ASPECT RATIO : 16:9
    FORMAT PROFILE LEVEL : Main [email protected]@High
    BITRATE : 44.9 Mbps
    WIDTH x HEIGHT : 3840 x 2160 pixels
    COLOR PRIMARIES : BT.2020

    AUDIO (1)
    CODEC : DTS-HD Master Audio
    LANGUAGE : English
    CHANNEL(S) : 7.1
    BITRATE : 4176 kbps
    SAMPLING RATE : 48 kHz
    BIT DEPTH : 24 bits
    OTHER INFO : DTS Core: 5.1 / 48 kHz / 1509 kbps / 24-bit

    AUDIO (2)
    CODEC : AC-3
    LANGUAGE : English
    CHANNEL(S) : 2.0
    BITRATE : 224 kbps
    SAMPLING RATE : 48 kHz
    OTHER INFO : Commentary by director/writer Christopher McQuarrie and star Tom Cruise

    AUDIO (3)
    CODEC : AC-3
    LANGUAGE : English
    CHANNEL(S) : 2.0
    BITRATE : 224 kbps
    SAMPLING RATE : 48 kHz
    OTHER INFO : Commentary by composer Joe Kraemer

    SUBTITLES
    English | English (SDH) | Danish | Dutch | Finnish | French | French (Canadian) | German | Italian | Japanese | Korean
    Norwegian | Portuguese (Brazilian) | Spanish (Castilian) | Spanish (Latin American) | Swedish

    Commentary #1: English | French | French (Canadian) | German | Italian | Japanese | Spanish (Castilian)
    Spanish (Latin American)
    Commentary #2: English | French | French (Canadian) | German | Italian | Japanese | Spanish (Castilian)
    Spanish (Latin American)

    [​IMG] [​IMG]
    [​IMG] [​IMG]
    [​IMG] [​IMG]

    Fshare ~ 46.21GB

    Nhấn nút Cảm ơn (dưới chân bài) để thấy link!


    4Share

    Nhấn nút Cảm ơn (dưới chân bài) để thấy link!


    Sub Việt

    https://subscene.com/subtitles/jack-reacher

    Tổng hợp phim 18+

    Link topic https://hdvietnam.xyz/threads/mutil...ng-nhat-ban-au-my-cap-nhat-hang-ngay.1796232/
    Nhấn nút Cảm ơn (dưới chân bài) để thấy link!


    Tổng hợp phim full Menu (Thuyết minh+Sub Việt) bluray (nethd.org)

    Nhấn nút Cảm ơn (dưới chân bài) để thấy link!


    Tổng hợp phim bộ Lồng tiếng, thuyết minh, sub việt

    Nhấn nút Cảm ơn (dưới chân bài) để thấy link!


    Tổng hợp phim hàng ngày

    Link topic https://hdvietnam.xyz/threads/tong-hop-phim-bluray-remux-iso-cap-nhat-hang-ngay.1796055/



    Nhấn nút Cảm ơn (dưới chân bài) để thấy link!




    Tổng hợp phim bluray Remux ISO 4K




    Mhd

    720p

    1080p

    Thuyết minh

    Remux

    ISO
     
  3. canodinh

    canodinh Uploader

    Tham gia ngày:
    10/9/11
    Bài viết:
    19,839
    Đã được cảm ơn:
    240,384
    chipsteps and sexyca like this.
  4. leewanhee

    leewanhee Well-Known Member

    Tham gia ngày:
    6/12/09
    Bài viết:
    2,072
    Đã được cảm ơn:
    1,127
    Giới tính:
    Nam
    Nghề nghiệp:
    kế toán
    Nơi ở:
    Việt Nam
    Có bản nào nhẹ hơn không ad
     

Chia sẻ trang này