[Fshare] [Remux 3D|H Động] Guardians of the Galaxy Vol 3 2023 1080p 3D BluRay Hybrid Remux-Vệ Binh Dải Ngân H

Thảo luận trong '3D' bắt đầu bởi canodinh, 22/12/23.

  1. canodinh

    canodinh Uploader

    Tham gia ngày:
    10/9/11
    Bài viết:
    21,722
    Đã được cảm ơn:
    261,616
    Đầy đủ các bản thuyết minh,4k trong folder fshare


    Guardians of the Galaxy Vol 3 2023 1080p 3D BluRay Hybrid Remux MVC TrueHD Atmos 7 1


    Vệ Binh Dải Ngân Hà 3

    [​IMG]


    Phim mở đầu bằng cuộc tấn công bất ngờ vào căn cứ Knowhere của nhóm vệ binh. Hậu quả, Rocket Raccoon (Bradley Cooper lồng tiếng) bị thương nặng và rơi vào hôn mê. Để cứu bạn thân, Star-Lord/Peter Quill (Chris Pratt) và cả nhóm phải chiến đấu chống lại High Evolutionary (Chukwudi Iwuji), kẻ nắm giữ mã định danh của Rocket, luôn coi cậu là sản phẩm thí nghiệm lỗi do mình tạo ra.


    General:
    Source (1): Guardians.of.the.Galaxy.Vol.3.2023.1080p.JPN.3D.Blu-ray.AVC.DTS-HD.MA.7.1-3DTorrents | 3D Video, 3D Eng Sub, Chapters
    Source (2): Guardians.of.the.Galaxy.Vol.3.2023.BluRay.1080p.TrueHD.Atmos.7.1.AVC.HYBRID.REMUX-FraMeSToR | Atmos+AC3 Audio, Commentary Audio, Other Subs
    Format: Matroska (MKV)
    Size: 41.0 GiB
    Duration: 2:30:02
    Chapters: Yes (timestamps 1-34)

    Video: 1920x1080p 23.976fps AVC/MVC BT.709 33.5Mbps
    Audio (1): English TrueHD Atmos 7.1 4645kbps 48kHz 24bit
    Audio (2): English AC-3 5.1 640kbps 48kHz
    Audio (3): English AC-3 2.0 192kbps 48kHz (Commentary by Director James Gunn)

    Subtitles:
    English (3D)
    All others 2D:
    English (SDH) | Arabic | Bulgarian | Chinese (Cantonese) | Chinese (Traditional) | Croatian | Czech | Danish
    Dutch | Estonian | Finnish | French (Canadian) | Greek | Hebrew | Hungarian | Icelandic | Japanese | Korean | Latvian
    Lithuanian | Norwegian | Polish | Portuguese (Iberian) | Slovak | Slovenian | Spanish (Castilian)
    Spanish (Latin American) | Swedish | Turkish | Ukrainian
    Commentary Subs: English | French | Spanish (Latin American)

    !! DO NOT COMPLAIN THAT THE VIDEO IS ONLY 2D, IT *IS* 3D BUT THE ORIGINAL BLU-RAY MVC CODING THAT REQUIRES YOU HAVE THE CORRECT SOFTWARE/HARDWARE TO VIEW, ELSE IT WILL APPEAR 2D !!
    I personally use Media Player Classic - Home Cinema (MPC-HC) and madVR renderer for 3D playback, both of which can be found in the K-Lite Codec Pack.

    MediaInfo:
    General
    Unique ID : 227455811619512885228929882426565570107 (0xAB1E65573B2EBCF976248DC55281AE3B)
    Complete name : Guardians.of.the.Galaxy.Vol.3.2023.1080p.3D.BluRay.Hybrid.Remux.MVC.TrueHD.Atmos.7.1.mkv
    Format : Matroska
    Format version : Version 4
    File size : 41.0 GiB
    Duration : 2 h 30 min
    Overall bit rate mode : Variable
    Overall bit rate : 39.1 Mb/s
    Frame rate : 23.976 FPS
    Movie name : MARVEL STUDIOS' GUARDIANS OF THE GALAXY VOL. 3 - BLU-RAY 3D
    Encoded date : 2023-12-20 20:05:28 UTC
    Writing application : mkvmerge v81.0 ('Milliontown') 64-bit
    Writing library : libebml v1.4.4 + libmatroska v1.7.1
    Cover : Yes
    Attachments : cover.jpg

    Video
    ID : 1
    ID in the original source medium : 4113 (0x1011)
    Format : AVC
    Format/Info : Advanced Video Codec
    Format profile : Stereo [email protected] / [email protected]
    MultiView_Count : 2
    MultiView_Layout : Both Eyes laced in one block (left eye first)
    Format settings : CABAC / 3 Ref Frames
    Format settings, CABAC : Yes
    Format settings, Reference frames : 3 frames
    Codec ID : V_MPEG4/ISO/AVC
    Duration : 2 h 30 min
    Bit rate mode : Variable
    Bit rate : 33.5 Mb/s
    Maximum bit rate : 38.0 Mb/s
    Width : 1 920 pixels
    Height : 1 080 pixels
    Display aspect ratio : 16:9
    Frame rate mode : Constant
    Frame rate : 23.976 (24000/1001) FPS
    Color space : YUV
    Chroma subsampling : 4:2:0
    Bit depth : 8 bits
    Scan type : Progressive
    Bits/(Pixel*Frame) : 0.673
    Stream size : 35.1 GiB (86%)
    Language : English
    Default : Yes
    Forced : No
    Original source medium : Blu-ray

    Audio #1
    ID : 2
    Format : MLP FBA 16-ch
    Format/Info : Meridian Lossless Packing FBA with 16-channel presentation
    Commercial name : Dolby TrueHD with Dolby Atmos
    Codec ID : A_TRUEHD
    Duration : 2 h 30 min
    Bit rate mode : Variable
    Bit rate : 4 645 kb/s
    Maximum bit rate : 7 914 kb/s
    Channel(s) : 8 channels
    Channel layout : L R C LFE Ls Rs Lb Rb
    Sampling rate : 48.0 kHz
    Frame rate : 1 200.000 FPS (40 SPF)
    Compression mode : Lossless
    Stream size : 4.87 GiB (12%)
    Title : TrueHD Atmos 7.1
    Language : English
    Default : Yes
    Forced : No
    Number of dynamic objects : 13
    Bed channel count : 1 channel
    Bed channel configuration : LFE

    Audio #2
    ID : 3
    Format : AC-3
    Format/Info : Audio Coding 3
    Commercial name : Dolby Digital
    Codec ID : A_AC3
    Duration : 2 h 30 min
    Bit rate mode : Constant
    Bit rate : 640 kb/s
    Channel(s) : 6 channels
    Channel layout : L R C LFE Ls Rs
    Sampling rate : 48.0 kHz
    Frame rate : 31.250 FPS (1536 SPF)
    Compression mode : Lossy
    Stream size : 687 MiB (2%)
    Title : AC-3 5.1
    Language : English
    Service kind : Complete Main
    Default : No
    Forced : No

    Audio #3
    ID : 4
    Format : AC-3
    Format/Info : Audio Coding 3
    Commercial name : Dolby Digital
    Codec ID : A_AC3
    Duration : 2 h 30 min
    Bit rate mode : Constant
    Bit rate : 192 kb/s
    Channel(s) : 2 channels
    Channel layout : L R
    Sampling rate : 48.0 kHz
    Frame rate : 31.250 FPS (1536 SPF)
    Compression mode : Lossy
    Stream size : 206 MiB (0%)
    Title : Commentary by Director James Gunn
    Language : English
    Service kind : Complete Main
    Default : No
    Forced : No

    Text #1
    ID : 5
    ID in the original source medium : 4609 (0x1201)
    Format : PGS
    Muxing mode : zlib
    Codec ID : S_HDMV/PGS
    Codec ID/Info : Picture based subtitle format used on BDs/HD-DVDs
    Duration : 2 h 27 min
    Bit rate : 28.9 kb/s
    Frame rate : 0.366 FPS
    Count of elements : 3242
    Stream size : 30.5 MiB (0%)
    Title : English (3D)
    Language : English
    Default : No
    Forced : No
    3d-plane : 1
    Original source medium : Blu-ray



    [​IMG] [​IMG]
    [​IMG] [​IMG]
    [​IMG] [​IMG]


    Fshare ~ 41.03GB

    Nhấn nút Cảm ơn (dưới chân bài) để thấy link!


    4Share

    Nhấn nút Cảm ơn (dưới chân bài) để thấy link!


    Sub Việt

    https://subscene.com/subtitles/guardians-of-the-galaxy-volume-3

    Tổng hợp phim 18+

    Link topic https://hdvietnam.xyz/threads/mutil...ng-nhat-ban-au-my-cap-nhat-hang-ngay.1796232/
    Nhấn nút Cảm ơn (dưới chân bài) để thấy link!


    Tổng hợp phim full Menu (Thuyết minh+Sub Việt) bluray (nethd.org)

    Nhấn nút Cảm ơn (dưới chân bài) để thấy link!


    Tổng hợp phim bộ Lồng tiếng, thuyết minh, sub việt

    Nhấn nút Cảm ơn (dưới chân bài) để thấy link!


    Tổng hợp phim hàng ngày

    Link topic https://hdvietnam.xyz/threads/tong-hop-phim-bluray-remux-iso-cap-nhat-hang-ngay.1796055/



    Nhấn nút Cảm ơn (dưới chân bài) để thấy link!




    Tổng hợp phim bluray Remux ISO 4K




    Mhd https://www.hdvietnam.xyz/threads/h...ay-dd5-1x264-xmd-ve-binh-dai-ngan-ha.1874945/

    720p https://www.hdvietnam.xyz/threads/h...bluray-dd5-1x264-ve-binh-dai-ngan-ha.1874917/

    1080p https://www.hdvietnam.xyz/threads/h...s-hd-ma-7-1-x264-ve-binh-dai-ngan-ha.1874851/

    4K HDR DV https://www.hdvietnam.xyz/threads/4...-bluray-hdr-dovi-ve-binh-dai-ngan-ha.1875494/

    4K HDR DV_TM_SV https://www.hdvietnam.xyz/threads/h...-ve-binh-dai-ngan-ha-3.1872760/#post-11017484

    Thuyết minh https://www.hdvietnam.xyz/threads/h...max-all-web-dl-ve-binh-dai-ngan-ha-3.1872760/

    Remux https://www.hdvietnam.xyz/threads/h...ux-avc-dts-hd-ma-ve-binh-dai-ngan-ha.1874898/

    Remux_Thuyết minh_Sub Việt https://www.hdvietnam.xyz/threads/h...-ve-binh-dai-ngan-ha-3.1872760/#post-11015119

    ISO https://www.hdvietnam.xyz/threads/i...-avc-dts-hd-ma-7-ve-binh-dai-ngan-ha.1874902/

    Remux 4K https://www.hdvietnam.xyz/threads/r...imax-2160p-uhd-bluray-dv-hdr10-remux.1874970/

    Remux 4K_Thuyết minh_Sub Việt https://www.hdvietnam.xyz/threads/h...-ve-binh-dai-ngan-ha-3.1872760/#post-11015506

    ISO 4K https://www.hdvietnam.xyz/threads/i...-blu-ray-hevc-tr-ve-binh-dai-ngan-ha.1875068/
     
    k777, nnafly, cuongbka and 31 others like this.
  2. titeo2020

    titeo2020 New Member

    Tham gia ngày:
    11/5/20
    Bài viết:
    14
    Đã được cảm ơn:
    6
    Giới tính:
    Nam
    Nơi ở:
    Bình Dương
    cám ơn bạn nhiều , phim 3d bây giờ ít người làm quá .Xin cám ơn.
     

Chia sẻ trang này