[Fshare] [RAW]Thiên Địa Nam Nhi-Cold Blood Warm Heart (1996) 1080P.MYTV

Thảo luận trong 'mHD, SD' bắt đầu bởi nguyen chan, 5/1/24.

  1. nguyen chan

    nguyen chan Well-Known Member

    Tham gia ngày:
    9/8/11
    Bài viết:
    419
    Đã được cảm ơn:
    2,054
    [RAW]Thiên Địa Nam Nhi-Cold Blood Warm Heart (1996) 1080P.MYTV

    [​IMG]


    Nội dung Thiên địa nam nhi xoay quanh 2 anh em Từ Vĩnh Bang (Trịnh Thiếu Thu đóng) và Từ Gia Lập (La Gia Lương đóng). Nếu Vĩnh Bang là người có chí cầu tiến, luôn hết mình vì công việc cảnh sát, thì Gia Lập tuy là thanh tra cao cấp, nhưng lại hám tiền và danh vọng. Để rồi hai anh em đã đi hai con đường khác nhau, trở thành hai kẻ đối đầu…

    Gia Lập ngày càng lún sâu vào tham vọng, tội ác và gây ra bao bi kịch đau khổ cho những người xung quanh. Thành công của phim ngoài dàn diễn viên hùng hậu, còn là kịch bản xuất sắc, với những cao trào và thắt mở khó mà đoán được.

    •Diễn viên: Trịnh Thiếu Thu, La Gia Lương, Trương Trí Lâm, Ngũ Vịnh Vy, Trần Tùng Linh, Tuyên Huyên, Cổ Thiên Lạc, Trần Chỉ Thanh

    •Thể loại: Tâm Lý - Tình Cảm, Hình Sự, Gia Đình

    •Quốc gia: Hồng Kông
    •Thời lượng: 45 phút / tập
    •Đạo diễn: Thích Kỳ Nghĩa

    Video
    ID : 1
    Format : AVC
    Format/Info : Advanced Video Codec
    Format profile : Main@L4
    Format settings : CABAC / 1 Ref Frames
    Format settings, CABAC : Yes
    Format settings, Reference frames : 1 frame
    Codec ID : V_MPEG4/ISO/AVC
    Duration : 46 min 35 s
    Bit rate mode : Variable
    Bit rate : 3 836 kb/s
    Maximum bit rate : 11.7 Mb/s
    Width : 1 920 pixels
    Height : 1 080 pixels
    Display aspect ratio : 16:9
    Frame rate mode : Constant
    Frame rate : 30.000 FPS
    Color space : YUV
    Chroma subsampling : 4:2:0
    Bit depth : 8 bits
    Scan type : Progressive
    Bits/(Pixel*Frame) : 0.062
    Stream size : 1.25 GiB (91%)
    Language : English
    Default : Yes
    Forced : No
    Audio #1
    ID : 2
    Format : AC-3
    Format/Info : Audio Coding 3
    Commercial name : Dolby Digital
    Codec ID : A_AC3
    Duration : 46 min 34 s
    Bit rate mode : Constant
    Bit rate : 192 kb/s
    Channel(s) : 2 channels
    Channel layout : L R
    Sampling rate : 48.0 kHz
    Frame rate : 31.250 FPS (1536 SPF)
    Compression mode : Lossy
    Delay relative to video : -11 ms
    Stream size : 64.0 MiB (5%)
    Title : 国语
    Language : Chinese
    Service kind : Complete Main
    Default : Yes
    Forced : No
    Audio #2
    ID : 3
    Format : AC-3
    Format/Info : Audio Coding 3
    Commercial name : Dolby Digital
    Codec ID : A_AC3
    Duration : 46 min 35 s
    Bit rate mode : Constant
    Bit rate : 192 kb/s
    Channel(s) : 2 channels
    Channel layout : L R
    Sampling rate : 48.0 kHz
    Frame rate : 31.250 FPS (1536 SPF)
    Compression mode : Lossy
    Delay relative to video : -11 ms
    Stream size : 64.0 MiB (5%)
    Title : 粤语
    Language : English
    Service kind : Complete Main
    Default : No
    Forced : No

    Bộ RAW này mình share cho ai cần nhé, nếu bạn nào rảnh mux audio có lòng cho mình xin cảm ơn nhé.
    Link
    Nhấn nút Cảm ơn (dưới chân bài) để thấy link!



     
    ta137, Arirang3600, romvemot and 23 others like this.
  2. skillme

    skillme Well-Known Member

    Tham gia ngày:
    3/8/16
    Bài viết:
    299
    Đã được cảm ơn:
    340
    quánh dấu chờ hàng remux
     
  3. nicolasphuong

    nicolasphuong Well-Known Member

    Tham gia ngày:
    14/7/10
    Bài viết:
    1,744
    Đã được cảm ơn:
    7,417
    sao ko lên hàng Jade ý,,,jade đẹp hơn nhiều@@
     
  4. nguyen chan

    nguyen chan Well-Known Member

    Tham gia ngày:
    9/8/11
    Bài viết:
    419
    Đã được cảm ơn:
    2,054
    Bản jade nặng quá. Mà hôm bữa bác kia share rồi
     
  5. nicolasphuong

    nicolasphuong Well-Known Member

    Tham gia ngày:
    14/7/10
    Bài viết:
    1,744
    Đã được cảm ơn:
    7,417
    Thấy ai share đâu
     
  6. nguyen chan

    nguyen chan Well-Known Member

    Tham gia ngày:
    9/8/11
    Bài viết:
    419
    Đã được cảm ơn:
    2,054
    Tui tải rồi nhưng nặng quá kg up
     

Chia sẻ trang này