Phim 3D Phần 3

Thảo luận trong '3D' bắt đầu bởi laumam, 19/2/12.

  1. kietva

    kietva Member

    Tham gia ngày:
    24/12/09
    Bài viết:
    175
    Đã được cảm ơn:
    8
    Ðề: Phim 3D Phần 3

    rất cám ơn bác laumam, nhờ bác mà em đươc thuong thúc rất nhiều phim 3d hay, 500gh ổ cứng down về xem xong ko nỡ xóa, đang nhịn ăn mua thêm ổ cứng chờ phim của bác, đừng phụ lòng em nha bác, cố gắng up nhiều phim mới nội dung hay :D
    Xia Xia :D
     
  2. tham_tu

    tham_tu New Member

    Tham gia ngày:
    1/8/09
    Bài viết:
    164
    Đã được cảm ơn:
    214
    Ðề: Phim 3D Phần 3

    Hix, pác laumam ơi, pác có mấy bộ phim tài liệu của IMAX ko pác, nếu dc pác tạo thêm cái box 3D IMAX cho ae dy pác ơi
     
  3. kietva

    kietva Member

    Tham gia ngày:
    24/12/09
    Bài viết:
    175
    Đã được cảm ơn:
    8
    Ðề: Phim 3D Phần 3

    Vẫn chưa có link down,e hết phim 3d co rồi bác laumam oi :D
     
  4. laumam

    laumam Well-Known Member

    Tham gia ngày:
    22/2/09
    Bài viết:
    1,644
    Đã được cảm ơn:
    2,189
    Ðề: Phim 3D Phần 3

    đã up Torrente 4 Lethal Crisis 2011 3D
     
  5. kietva

    kietva Member

    Tham gia ngày:
    24/12/09
    Bài viết:
    175
    Đã được cảm ơn:
    8
    Ðề: Phim 3D Phần 3

    Phim có phụ đề hay thuyết minh không bác laumam ui?
     
  6. laumam

    laumam Well-Known Member

    Tham gia ngày:
    22/2/09
    Bài viết:
    1,644
    Đã được cảm ơn:
    2,189
    Ðề: Phim 3D Phần 3

    đã up NOVA ZEMBLA 3D
     
  7. laumam

    laumam Well-Known Member

    Tham gia ngày:
    22/2/09
    Bài viết:
    1,644
    Đã được cảm ơn:
    2,189
    Ðề: Phim 3D Phần 3

    ................................................................
     
    Chỉnh sửa cuối: 28/3/12
  8. thanhlong1003

    thanhlong1003 New Member

    Tham gia ngày:
    10/6/10
    Bài viết:
    11
    Đã được cảm ơn:
    0
    Ðề: Phim 3D Phần 3

    bác laumam ơi, audio thuyết minh của GNOMEO AND JULIETDTS AC3 OU LTDuc ko nghe được. bác check lại giúp mình nhé. thanks bác nhiều.
     
  9. tennisokute

    tennisokute Active Member

    Tham gia ngày:
    7/12/10
    Bài viết:
    251
    Đã được cảm ơn:
    33
    Ðề: Phim 3D Phần 3

    Phim Scary movie chỉ xem được mỗi đoạn đầu, thử cả trên TV SS6000 và PC đều bị như thế. Đã down bản bên hdmovie.vn cũng bị lỗi như thế, chắc phim có cùng 1 nguồn.
     
  10. laumam

    laumam Well-Known Member

    Tham gia ngày:
    22/2/09
    Bài viết:
    1,644
    Đã được cảm ơn:
    2,189
    Ðề: Phim 3D Phần 3

    tìm audio thuyết minh khác mux lại nhé

    có thể up bị lỗi rồi
     
  11. laumam

    laumam Well-Known Member

    Tham gia ngày:
    22/2/09
    Bài viết:
    1,644
    Đã được cảm ơn:
    2,189
    Ðề: Phim 3D Phần 3

    Night Of The Living Dead 3D Re-Animation 2012 AC3 OU_LTDuc (KINH DỊ)

    [​IMG]
    [​IMG]

    Mã:
    Format                                   : Matroska
    Format version                           : Version 2
    File size                                : 9.05 GiB
    Duration                                 : 1h 32mn
    Overall bit rate                         : 14.1 Mbps
    Movie name                               : LTDuc_3DRip
    Encoded date                             : UTC 2012-03-27 13:22:32
    Writing application                      : mkvmerge v5.3.0 ('I could have danced') built on Feb  9 2012 10:38:07
    Writing library                          : libebml v1.2.3 + libmatroska v1.3.0
    
    Video
    ID                                       : 1
    Format                                   : AVC
    Format/Info                              : Advanced Video Codec
    Format profile                           : [email protected]
    Format settings, CABAC                   : Yes
    Format settings, ReFrames                : 2 frames
    Codec ID                                 : V_MPEG4/ISO/AVC
    Duration                                 : 1h 32mn
    Bit rate                                 : 13.3 Mbps
    Width                                    : 1 920 pixels
    Height                                   : 1 080 pixels
    Display aspect ratio                     : 16:9
    Frame rate                               : 23.976 fps
    Color space                              : YUV
    Chroma subsampling                       : 4:2:0
    Bit depth                                : 8 bits
    Scan type                                : Progressive
    Bits/(Pixel*Frame)                       : 0.268
    Stream size                              : 8.58 GiB (95%)
    Writing library                          : x264 core
    Language                                 : English
    Default                                  : Yes
    Forced                                   : No
    
    Audio
    ID                                       : 2
    Format                                   : AC-3
    Format/Info                              : Audio Coding 3
    Mode extension                           : CM (complete main)
    Codec ID                                 : A_AC3
    Duration                                 : 1h 32mn
    Bit rate mode                            : Constant
    Bit rate                                 : 448 Kbps
    Channel(s)                               : 6 channels
    Channel positions                        : Front: L C R, Side: L R, LFE
    Sampling rate                            : 48.0 KHz
    Bit depth                                : 16 bits
    Compression mode                         : Lossy
    Stream size                              : 295 MiB (3%)
    Language                                 : English
    Default                                  : Yes
    Forced                                   : No
    Phim Real3D của USA sản xuất 2012 , hinh ảnh 3D đẹp



    XEM TRỰC TIẾP TRÊN TV3D BẰNG USB

    Nhấn nút Cảm ơn (dưới chân bài) để thấy link!
     
    Chỉnh sửa cuối: 28/3/12
  12. laumam

    laumam Well-Known Member

    Tham gia ngày:
    22/2/09
    Bài viết:
    1,644
    Đã được cảm ơn:
    2,189
    Ðề: Phim 3D Phần 3

    IMAX-SOS PLANET 3D OU

    [​IMG]

    Nhấn nút Cảm ơn (dưới chân bài) để thấy link!
     
  13. tham_tu

    tham_tu New Member

    Tham gia ngày:
    1/8/09
    Bài viết:
    164
    Đã được cảm ơn:
    214
    Ðề: Phim 3D Phần 3

    thank pác, vừa nói hôm trc hôm sau là pác up gòy .... <:p^^
     
  14. kietva

    kietva Member

    Tham gia ngày:
    24/12/09
    Bài viết:
    175
    Đã được cảm ơn:
    8
    Ðề: Phim 3D Phần 3

    bác cho em hỏi phim có thuyết minh hay phụ đề ko bác?
     
  15. namcuong

    namcuong New Member

    Tham gia ngày:
    24/2/10
    Bài viết:
    11
    Đã được cảm ơn:
    0
    Ðề: Phim 3D Phần 3

    không thuyết minh cũng ko phụ đề, film 3D khan hiếm phụ đề quá
     
  16. rayan9966

    rayan9966 New Member

    Tham gia ngày:
    12/12/09
    Bài viết:
    106
    Đã được cảm ơn:
    1
    Nghề nghiệp:
    Sinh Viên
    Nơi ở:
    Việt Nam
    Ðề: Phim 3D Phần 3

    HDD còn trống. Đợi tải film. Up up..Bác laumam !!! Hjx..
     
  17. niitminhtanpro

    niitminhtanpro Member

    Tham gia ngày:
    15/9/10
    Bài viết:
    114
    Đã được cảm ơn:
    0
    Ðề: Phim 3D Phần 3

    sao mình coi trên TV Toshiba 42TL515U này không được ta... hình nó vẫn bị chia đôi, mặc dù đã chuyển về top and button. Cho hỏi dùng phần mềm nào để coi được. Cảm ơn!
     
  18. rayan9966

    rayan9966 New Member

    Tham gia ngày:
    12/12/09
    Bài viết:
    106
    Đã được cảm ơn:
    1
    Nghề nghiệp:
    Sinh Viên
    Nơi ở:
    Việt Nam
    Ðề: Phim 3D Phần 3

    Phim 3D Phần 4 đê Bác! :-j:-j:-j
     
  19. laumam

    laumam Well-Known Member

    Tham gia ngày:
    22/2/09
    Bài viết:
    1,644
    Đã được cảm ơn:
    2,189
    Ðề: Phim 3D Phần 3

    sẽ có phần 4 , ngày mai up darkest hour 3d full màn hình , ca nhạc Samsung Smtown concert 3d , Idol japan ,
     
  20. K - J

    K - J Member

    Tham gia ngày:
    30/11/11
    Bài viết:
    42
    Đã được cảm ơn:
    2
    Ðề: Phim 3D Phần 3

    bác chịu khó wa =D>, phim của bác rất chất lượng, em mới tham gia nên chưa biết nhiều nhưng về khoản 3D thì cứ down của bác là ok :)>-.(đã down FD5, Transformer 3, sammy adventure, và còn sau này nữa =P~)
     

Chia sẻ trang này