Phim 3D Phần 3

Thảo luận trong '3D' bắt đầu bởi laumam, 19/2/12.

  1. laumam

    laumam Well-Known Member

    Tham gia ngày:
    22/2/09
    Bài viết:
    1,644
    Đã được cảm ơn:
    2,180
    Đây là lần up thứ 3 , nếu trong 1 tháng tới có phim mới thì sẽ up luôn trong topic này , sau đó sẽ nghỉ hẳn luôn.
    Cảm ơn sự nhiệt tình của các bạn.

    01 A MONSTER IN PARIS 3D DTS OU_LTDuc_Phụ Đề (Full Màn Hình)
    02 ONE WAY TRIP 3D FULL DTS OU_LTDuc (Full Màn Hình)
    03 CORALINE 2009 3D FULL DTS OU_LTDuc_Thuyết Minh (Full Màn Hình)
    04 MEGAMIND_3D FULL DD5.1 OU_LTDuc_Thuyết Minh (Full Màn Hình)

    05 MONSTERS VS ALIEN 3D FULL DD5.1 OU_LTDuc_Thuyết Minh (Full Màn Hình)

    06 SCHOCK LABYRINTH 3D FULL DTS OU_LTDuc_Phụ Đề (Full Màn Hình)
    07 Space Chimps 2 3D DD5.1 OU_LTDuc
    08 BEAUTY AND THE BEAST DTS OU_LTDuc_Phụ đề
    09 IMMORTALS_3D DTS OU_LTDuc
    10 HUGO 3D DTS SBS_LTDuc Phụ Đề
    11 MONSTER_HOUSE 3D DTS OU_LTDuc_Thuyết minh (Full Màn Hình)
    12 ADVENTURES OF TINTIN 3D DTS SBS_LTDuc (Full Màn Hình)
    13 UNSERE NATUR 3D DTS SBS_LTDuc
    14 HAPPY FEET 2 3D DTS SBS_LTDuc_Phụ Đề (Full Màn Hình)
    15 Little Ghostly Adventures of Tofu Boy 3D DD5.1 JPN OU_LTDuc_Phụ đề
    16 3D_MUSIC_VIDEO_SELECTION_JAPAN
    17 GENKI_ROCKETS_3D_MUSIC
    18 Kaizoku Sentai Gokaiger_Kamen Rider 3D 2011 DD5.1 JPN OU_LTDuc
    19 SCARY MOVIE 3D DTS HD_AC3 JPN OU_LTDuc
    20 ALICE IN WONDERLAND 3D 2010 DTS OU_LTDuc_Thuyết Minh
    21 THE POLAR EXPRESS 3D DTS OU_LTDuc_Thuyết Minh (Full Màn Hình)
    22 Cloudy With A Chance Of Meatballs DTS OU_LTDuc_Thuyết Minh (Full Màn Hình)
    23 CARS2_3D AC3 OU_LTDuc_Thuyết Minh (Full Màn Hình)
    24 MEET THE ROBINSONS 3D DTS HD_AC3 OU_LTDuc Phụ Đề (Full Màn Hình)
    25 MAYDAY 3DNA DTS_AC3 Chinese OU_LTDuc (full màn hình)
    26 Open Season 2006 3D AC3 OU_LTDuc_Thuyết Minh
    27 Spy Kids 3 3D Game Over 2003 DTS_AC3 OU_LTDuc Phụ Đề
    28 GNOMEO AND JULIET DTS_AC3 OU_LTDuc_Thuyết Minh
    29 Battle for Terra 2007 3D DTS_AC3 OU_LTDuc Phụ Đề (Full Màn Hình)
    30 Paranormal Xperience 3D 2011 DTS_AC3 OU_LTDuc (Kinh Dị)
    31 LION OF JUDAH DTS_AC3 OU_LTDuc
    32 BOLT 3D DTS_AC3 OU_LTDuc_Thuyết Minh
    33 Torrente 4 Lethal Crisis 2011 3D DTS_AC3 OU_LTDuc
    34 NOVA ZEMBLA 3D 2011 DTS-HD AC3 OU_LTDuc_Phụ Đề (Full Màn Hình)
    35 Night Of The Living Dead 3D Re-Animation 2012 AC3 OU_LTDuc (KINH DỊ)
    36 IMAX-SOS PLANET 3D OU







    Sẽ bắt đầu up vào ngày 22/2/2012
     
    Chỉnh sửa cuối: 31/3/12
    inu_AL cảm ơn bài này.
  2. laumam

    laumam Well-Known Member

    Tham gia ngày:
    22/2/09
    Bài viết:
    1,644
    Đã được cảm ơn:
    2,180
    Ðề: Phim 3D Phần 3

    A MONSTER IN PARIS 3D DTS OU_LTDuc_Phụ Đề (Full Màn Hình)

    [​IMG]
    [​IMG]
    [​IMG]
    [​IMG]

    Mã:
    Format                                   : Matroska
    Format version                           : Version 2
    File size                                : 13.1 GiB
    Duration                                 : 1h 31mn
    Overall bit rate mode                    : Variable
    Overall bit rate                         : 20.6 Mbps
    Movie name                               : LTDuc_3DRip
    Encoded date                             : UTC 2012-02-19 02:39:42
    Writing application                      : mkvmerge v5.0.1 ('Es ist Sommer') built on Oct  9 2011 11:55:43
    Writing library                          : libebml v1.2.2 + libmatroska v1.3.0
    
    Video
    ID                                       : 1
    Format                                   : AVC
    Format/Info                              : Advanced Video Codec
    Format profile                           : [email protected]
    Format settings, CABAC                   : Yes
    Format settings, ReFrames                : 2 frames
    Muxing mode                              : Header stripping
    Codec ID                                 : V_MPEG4/ISO/AVC
    Duration                                 : 1h 31mn
    Bit rate                                 : 18.3 Mbps
    Width                                    : 1 920 pixels
    Height                                   : 1 080 pixels
    Display aspect ratio                     : 16:9
    Frame rate                               : 23.976 fps
    Color space                              : YUV
    Chroma subsampling                       : 4:2:0
    Bit depth                                : 8 bits
    Scan type                                : Progressive
    Bits/(Pixel*Frame)                       : 0.367
    Stream size                              : 11.6 GiB (89%)
    Writing library                          : x264 core
    Default                                  : Yes
    Forced                                   : No
    Color primaries                          : BT.709-5, BT.1361, IEC 61966-2-4, SMPTE RP177
    Transfer characteristics                 : BT.709-5, BT.1361
    Matrix coefficients                      : BT.709-5, BT.1361, IEC 61966-2-4 709, SMPTE RP177
    
    Audio #1
    ID                                       : 2
    Format                                   : DTS
    Format/Info                              : Digital Theater Systems
    Format profile                           : MA / Core
    Muxing mode                              : Header stripping
    Codec ID                                 : A_DTS
    Duration                                 : 1h 31mn
    Bit rate mode                            : Variable
    Bit rate                                 : 1 576 Kbps / 1 510 Kbps
    Channel(s)                               : 6 channels
    Channel positions                        : Front: L C R, Side: L R, LFE
    Sampling rate                            : 48.0 KHz
    Bit depth                                : 24 bits
    Compression mode                         : Lossless / Lossy
    Language                                 : French
    Default                                  : No
    Forced                                   : No
    
    Audio #2
    ID                                       : 3
    Format                                   : AC-3
    Format/Info                              : Audio Coding 3
    Mode extension                           : CM (complete main)
    Muxing mode                              : Header stripping
    Codec ID                                 : A_AC3
    Duration                                 : 1h 31mn
    Bit rate mode                            : Constant
    Bit rate                                 : 320 Kbps
    Channel(s)                               : 6 channels
    Channel positions                        : Front: L C R, Side: L R, LFE
    Sampling rate                            : 48.0 KHz
    Bit depth                                : 16 bits
    Compression mode                         : Lossy
    Delay relative to video                  : 1s 850ms
    Stream size                              : 209 MiB (2%)
    Language                                 : English
    Default                                  : Yes
    Forced                                   : No
    Nhấn nút Cảm ơn (dưới chân bài) để thấy link!


    Sub Việt IDX và SRT up trong folder
     
    Chỉnh sửa cuối: 28/2/12
    fsvnhd cảm ơn bài này.
  3. laumam

    laumam Well-Known Member

    Tham gia ngày:
    22/2/09
    Bài viết:
    1,644
    Đã được cảm ơn:
    2,180
    Ðề: Phim 3D Phần 3

    ONE WAY TRIP 3D FULL DTS OU_LTDuc (Full Màn Hình)

    [​IMG]
    [​IMG]
    [​IMG]
    [​IMG]

    Mã:
    Format                                   : Matroska
    Format version                           : Version 2
    File size                                : 11.1 GiB
    Duration                                 : 1h 29mn
    Overall bit rate                         : 17.7 Mbps
    Movie name                               : LTDuc_3DRip
    Encoded date                             : UTC 2012-02-19 02:49:04
    Writing application                      : mkvmerge v5.0.1 ('Es ist Sommer') built on Oct  9 2011 11:55:43
    Writing library                          : libebml v1.2.2 + libmatroska v1.3.0
    
    Video
    ID                                       : 1
    Format                                   : AVC
    Format/Info                              : Advanced Video Codec
    Format profile                           : [email protected]
    Format settings, CABAC                   : Yes
    Format settings, ReFrames                : 2 frames
    Muxing mode                              : Header stripping
    Codec ID                                 : V_MPEG4/ISO/AVC
    Duration                                 : 1h 29mn
    Bit rate                                 : 15.3 Mbps
    Width                                    : 1 920 pixels
    Height                                   : 1 080 pixels
    Display aspect ratio                     : 16:9
    Frame rate                               : 23.976 fps
    Color space                              : YUV
    Chroma subsampling                       : 4:2:0
    Bit depth                                : 8 bits
    Scan type                                : Progressive
    Bits/(Pixel*Frame)                       : 0.308
    Stream size                              : 9.56 GiB (86%)
    Writing library                          : x264 core
    Default                                  : Yes
    Forced                                   : No
    Color primaries                          : BT.709-5, BT.1361, IEC 61966-2-4, SMPTE RP177
    Transfer characteristics                 : BT.709-5, BT.1361
    Matrix coefficients                      : BT.709-5, BT.1361, IEC 61966-2-4 709, SMPTE RP177
    
    Audio
    ID                                       : 2
    Format                                   : DTS
    Format/Info                              : Digital Theater Systems
    Format profile                           : HRA / Core
    Muxing mode                              : Header stripping
    Codec ID                                 : A_DTS
    Duration                                 : 1h 29mn
    Bit rate mode                            : Constant
    Bit rate                                 : 2 047 Kbps / 1 510 Kbps
    Channel(s)                               : 6 channels
    Channel positions                        : Front: L C R, Side: L R, LFE
    Sampling rate                            : 48.0 KHz
    Bit depth                                : 16 bits
    Compression mode                         : Lossy
    Stream size                              : 1.28 GiB (12%)
    Language                                 : Russian
    Default                                  : Yes
    Forced                                   : No
    Nhấn nút Cảm ơn (dưới chân bài) để thấy link!
     
    Chỉnh sửa cuối: 21/2/12
    fsvnhd and quangvinh_2512 like this.
  4. tunglk86

    tunglk86 New Member

    Tham gia ngày:
    17/6/11
    Bài viết:
    35
    Đã được cảm ơn:
    1
    Ðề: Phim 3D Phần 3

    Cảm ơn bác laumam đã quay lại :)
     
  5. laumam

    laumam Well-Known Member

    Tham gia ngày:
    22/2/09
    Bài viết:
    1,644
    Đã được cảm ơn:
    2,180
    Ðề: Phim 3D Phần 3

    CORALINE 2009 3D FULL DTS OU_LTDuc_Thuyết Minh (Full Màn Hình)

    [​IMG]
    [​IMG]
    [​IMG]
    [​IMG]

    Mã:
    Format                                   : Matroska
    Format version                           : Version 2
    File size                                : 14.2 GiB
    Duration                                 : 1h 40mn
    Overall bit rate mode                    : Variable
    Overall bit rate                         : 20.2 Mbps
    Movie name                               : LTDuc_3DRip
    Encoded date                             : UTC 2012-02-14 17:14:46
    Writing application                      : mkvmerge v5.0.1 ('Es ist Sommer') built on Oct  9 2011 11:55:43
    Writing library                          : libebml v1.2.2 + libmatroska v1.3.0
    
    Video
    ID                                       : 1
    Format                                   : AVC
    Format/Info                              : Advanced Video Codec
    Format profile                           : [email protected]
    Format settings, CABAC                   : Yes
    Format settings, ReFrames                : 2 frames
    Muxing mode                              : Header stripping
    Codec ID                                 : V_MPEG4/ISO/AVC
    Duration                                 : 1h 40mn
    Bit rate                                 : 17.8 Mbps
    Width                                    : 1 920 pixels
    Height                                   : 1 080 pixels
    Display aspect ratio                     : 16:9
    Frame rate                               : 23.976 fps
    Color space                              : YUV
    Chroma subsampling                       : 4:2:0
    Bit depth                                : 8 bits
    Scan type                                : Progressive
    Bits/(Pixel*Frame)                       : 0.359
    Stream size                              : 12.5 GiB (88%)
    Writing library                          : x264 core
    Default                                  : Yes
    Forced                                   : No
    Color primaries                          : BT.709-5, BT.1361, IEC 61966-2-4, SMPTE RP177
    Transfer characteristics                 : BT.709-5, BT.1361
    Matrix coefficients                      : BT.709-5, BT.1361, IEC 61966-2-4 709, SMPTE RP177
    
    Audio #1
    ID                                       : 2
    Format                                   : DTS
    Format/Info                              : Digital Theater Systems
    Format profile                           : MA / Core
    Muxing mode                              : Header stripping
    Codec ID                                 : A_DTS
    Duration                                 : 1h 40mn
    Bit rate mode                            : Variable
    Bit rate                                 : 1 807 Kbps / 1 510 Kbps
    Channel(s)                               : 6 channels
    Channel positions                        : Front: L C R, Side: L R, LFE
    Sampling rate                            : 48.0 KHz
    Bit depth                                : 24 bits
    Compression mode                         : Lossless / Lossy
    Language                                 : English
    Default                                  : No
    Forced                                   : No
    
    Audio #2
    ID                                       : 3
    Format                                   : MPEG Audio
    Format version                           : Version 1
    Format profile                           : Layer 2
    Muxing mode                              : Header stripping
    Codec ID                                 : A_MPEG/L2
    Codec ID/Hint                            : MP2
    Duration                                 : 1h 40mn
    Bit rate mode                            : Constant
    Bit rate                                 : 128 Kbps
    Channel(s)                               : 2 channels
    Sampling rate                            : 48.0 KHz
    Compression mode                         : Lossy
    Stream size                              : 92.1 MiB (1%)
    Language                                 : Vietnamese
    Default                                  : Yes
    Forced                                   : No
    Nhấn nút Cảm ơn (dưới chân bài) để thấy link!
     
    Chỉnh sửa cuối: 2/3/12
    fsvnhd cảm ơn bài này.
  6. laumam

    laumam Well-Known Member

    Tham gia ngày:
    22/2/09
    Bài viết:
    1,644
    Đã được cảm ơn:
    2,180
    Ðề: Phim 3D Phần 3

    MEGAMIND_3D FULL DD5.1 OU_LTDuc_Thuyết Minh (Full Màn Hình)

    [​IMG]
    [​IMG]
    [​IMG]
    [​IMG]

    Mã:
    Format                                   : Matroska
    Format version                           : Version 2
    File size                                : 11.4 GiB
    Duration                                 : 1h 35mn
    Overall bit rate                         : 17.1 Mbps
    Movie name                               : LTDuc_3DRip
    Encoded date                             : UTC 2012-02-19 03:12:18
    Writing application                      : mkvmerge v5.0.1 ('Es ist Sommer') built on Oct  9 2011 11:55:43
    Writing library                          : libebml v1.2.2 + libmatroska v1.3.0
    
    Video
    ID                                       : 1
    Format                                   : AVC
    Format/Info                              : Advanced Video Codec
    Format profile                           : [email protected]
    Format settings, CABAC                   : Yes
    Format settings, ReFrames                : 2 frames
    Muxing mode                              : Header stripping
    Codec ID                                 : V_MPEG4/ISO/AVC
    Duration                                 : 1h 35mn
    Bit rate                                 : 15.5 Mbps
    Width                                    : 1 920 pixels
    Height                                   : 1 080 pixels
    Display aspect ratio                     : 16:9
    Frame rate                               : 23.976 fps
    Color space                              : YUV
    Chroma subsampling                       : 4:2:0
    Bit depth                                : 8 bits
    Scan type                                : Progressive
    Bits/(Pixel*Frame)                       : 0.312
    Stream size                              : 10.3 GiB (91%)
    Writing library                          : x264 core
    Default                                  : Yes
    Forced                                   : No
    Color primaries                          : BT.709-5, BT.1361, IEC 61966-2-4, SMPTE RP177
    Transfer characteristics                 : BT.709-5, BT.1361
    Matrix coefficients                      : BT.709-5, BT.1361, IEC 61966-2-4 709, SMPTE RP177
    
    Audio #1
    ID                                       : 2
    Format                                   : AC-3
    Format/Info                              : Audio Coding 3
    Mode extension                           : CM (complete main)
    Muxing mode                              : Header stripping
    Codec ID                                 : A_AC3
    Duration                                 : 1h 35mn
    Bit rate mode                            : Constant
    Bit rate                                 : 640 Kbps
    Channel(s)                               : 6 channels
    Channel positions                        : Front: L C R, Side: L R, LFE
    Sampling rate                            : 48.0 KHz
    Bit depth                                : 16 bits
    Compression mode                         : Lossy
    Stream size                              : 438 MiB (4%)
    Language                                 : Vietnamese
    Default                                  : Yes
    Forced                                   : No
    
    Audio #2
    ID                                       : 3
    Format                                   : AC-3
    Format/Info                              : Audio Coding 3
    Mode extension                           : CM (complete main)
    Muxing mode                              : Header stripping
    Codec ID                                 : A_AC3
    Duration                                 : 1h 35mn
    Bit rate mode                            : Constant
    Bit rate                                 : 640 Kbps
    Channel(s)                               : 6 channels
    Channel positions                        : Front: L C R, Side: L R, LFE
    Sampling rate                            : 48.0 KHz
    Bit depth                                : 16 bits
    Compression mode                         : Lossy
    Stream size                              : 438 MiB (4%)
    Language                                 : English
    Default                                  : No
    Forced                                   : No
    Nhấn nút Cảm ơn (dưới chân bài) để thấy link!
     
    Chỉnh sửa cuối: 23/2/12
    fsvnhd cảm ơn bài này.
  7. laumam

    laumam Well-Known Member

    Tham gia ngày:
    22/2/09
    Bài viết:
    1,644
    Đã được cảm ơn:
    2,180
    Ðề: Phim 3D Phần 3

    MONSTERS VS ALIEN 3D FULL DD5.1 OU_LTDuc_Thuyết Minh (Full Màn Hình)

    [​IMG]
    [​IMG]
    [​IMG]
    [​IMG]

    Mã:
    Format                                   : Matroska
    Format version                           : Version 2
    File size                                : 11.0 GiB
    Duration                                 : 1h 34mn
    Overall bit rate                         : 16.6 Mbps
    Movie name                               : LTDuc_3DRip
    Encoded date                             : UTC 2012-02-18 20:14:00
    Writing application                      : mkvmerge v5.0.1 ('Es ist Sommer') built on Oct  9 2011 11:55:43
    Writing library                          : libebml v1.2.2 + libmatroska v1.3.0
    
    Video
    ID                                       : 1
    Format                                   : AVC
    Format/Info                              : Advanced Video Codec
    Format profile                           : [email protected]
    Format settings, CABAC                   : Yes
    Format settings, ReFrames                : 2 frames
    Muxing mode                              : Header stripping
    Codec ID                                 : V_MPEG4/ISO/AVC
    Duration                                 : 1h 34mn
    Bit rate                                 : 15.3 Mbps
    Width                                    : 1 920 pixels
    Height                                   : 1 080 pixels
    Display aspect ratio                     : 16:9
    Frame rate                               : 23.976 fps
    Color space                              : YUV
    Chroma subsampling                       : 4:2:0
    Bit depth                                : 8 bits
    Scan type                                : Progressive
    Bits/(Pixel*Frame)                       : 0.308
    Stream size                              : 10.1 GiB (92%)
    Writing library                          : x264 core
    Default                                  : Yes
    Forced                                   : No
    Color primaries                          : BT.709-5, BT.1361, IEC 61966-2-4, SMPTE RP177
    Transfer characteristics                 : BT.709-5, BT.1361
    Matrix coefficients                      : BT.709-5, BT.1361, IEC 61966-2-4 709, SMPTE RP177
    
    Audio #1
    ID                                       : 2
    Format                                   : AC-3
    Format/Info                              : Audio Coding 3
    Mode extension                           : CM (complete main)
    Muxing mode                              : Header stripping
    Codec ID                                 : A_AC3
    Duration                                 : 1h 34mn
    Bit rate mode                            : Constant
    Bit rate                                 : 640 Kbps
    Channel(s)                               : 6 channels
    Channel positions                        : Front: L C R, Side: L R, LFE
    Sampling rate                            : 48.0 KHz
    Bit depth                                : 16 bits
    Compression mode                         : Lossy
    Stream size                              : 433 MiB (4%)
    Language                                 : English
    Default                                  : No
    Forced                                   : No
    
    Audio #2
    ID                                       : 3
    Format                                   : MPEG Audio
    Format version                           : Version 1
    Format profile                           : Layer 3
    Muxing mode                              : Header stripping
    Codec ID                                 : A_MPEG/L3
    Codec ID/Hint                            : MP3
    Duration                                 : 1h 34mn
    Bit rate mode                            : Constant
    Bit rate                                 : 320 Kbps
    Channel(s)                               : 2 channels
    Sampling rate                            : 48.0 KHz
    Compression mode                         : Lossy
    Stream size                              : 216 MiB (2%)
    Language                                 : Vietnamese
    Default                                  : Yes
    Forced                                   : No
    Nhấn nút Cảm ơn (dưới chân bài) để thấy link!
     
    Chỉnh sửa cuối: 2/3/12
    fsvnhd cảm ơn bài này.
  8. laumam

    laumam Well-Known Member

    Tham gia ngày:
    22/2/09
    Bài viết:
    1,644
    Đã được cảm ơn:
    2,180
    Ðề: Phim 3D Phần 3

    SCHOCK LABYRINTH 3D FULL DTS OU_LTDuc_Phụ Đề (Full Màn Hình)

    [​IMG]
    [​IMG]
    [​IMG]
    [​IMG]

    Mã:
    Format                                   : Matroska
    Format version                           : Version 2
    File size                                : 12.5 GiB
    Duration                                 : 1h 28mn
    Overall bit rate                         : 20.2 Mbps
    Movie name                               : LTDuc_3DRip
    Encoded date                             : UTC 2012-02-19 14:45:07
    Writing application                      : mkvmerge v5.0.1 ('Es ist Sommer') built on Oct  9 2011 11:55:43
    Writing library                          : libebml v1.2.2 + libmatroska v1.3.0
    
    Video
    ID                                       : 1
    Format                                   : AVC
    Format/Info                              : Advanced Video Codec
    Format profile                           : [email protected]
    Format settings, CABAC                   : Yes
    Format settings, ReFrames                : 2 frames
    Muxing mode                              : Header stripping
    Codec ID                                 : V_MPEG4/ISO/AVC
    Duration                                 : 1h 28mn
    Bit rate                                 : 18.2 Mbps
    Width                                    : 1 920 pixels
    Height                                   : 1 080 pixels
    Display aspect ratio                     : 16:9
    Frame rate                               : 23.976 fps
    Color space                              : YUV
    Chroma subsampling                       : 4:2:0
    Bit depth                                : 8 bits
    Scan type                                : Progressive
    Bits/(Pixel*Frame)                       : 0.367
    Stream size                              : 11.3 GiB (91%)
    Writing library                          : x264 core
    Default                                  : Yes
    Forced                                   : No
    Color primaries                          : BT.709-5, BT.1361, IEC 61966-2-4, SMPTE RP177
    Transfer characteristics                 : BT.709-5, BT.1361
    Matrix coefficients                      : BT.709-5, BT.1361, IEC 61966-2-4 709, SMPTE RP177
    
    Audio
    ID                                       : 2
    Format                                   : DTS
    Format/Info                              : Digital Theater Systems
    Muxing mode                              : Header stripping
    Codec ID                                 : A_DTS
    Duration                                 : 1h 28mn
    Bit rate mode                            : Constant
    Bit rate                                 : 1 510 Kbps
    Channel(s)                               : 6 channels
    Channel positions                        : Front: L C R, Side: L R, LFE
    Sampling rate                            : 48.0 KHz
    Bit depth                                : 16 bits
    Compression mode                         : Lossy
    Stream size                              : 960 MiB (7%)
    Language                                 : Japanese
    Default                                  : Yes
    Forced                                   : No
    Nhấn nút Cảm ơn (dưới chân bài) để thấy link!
     
    Chỉnh sửa cuối: 1/3/12
    fsvnhd cảm ơn bài này.
  9. laumam

    laumam Well-Known Member

    Tham gia ngày:
    22/2/09
    Bài viết:
    1,644
    Đã được cảm ơn:
    2,180
    Ðề: Phim 3D Phần 3

    Space Chimps 2 3D DD5.1 OU_LTDuc

    [​IMG]
    [​IMG]
    [​IMG]
    [​IMG]

    Mã:
    Format                                   : Matroska
    Format version                           : Version 2
    File size                                : 8.20 GiB
    Duration                                 : 1h 15mn
    Overall bit rate                         : 15.5 Mbps
    Movie name                               : LTDuc_3DRip
    Encoded date                             : UTC 2012-02-19 14:54:31
    Writing application                      : mkvmerge v5.0.1 ('Es ist Sommer') built on Oct  9 2011 11:55:43
    Writing library                          : libebml v1.2.2 + libmatroska v1.3.0
    
    Video
    ID                                       : 1
    Format                                   : AVC
    Format/Info                              : Advanced Video Codec
    Format profile                           : [email protected]
    Format settings, CABAC                   : Yes
    Format settings, ReFrames                : 2 frames
    Muxing mode                              : Header stripping
    Codec ID                                 : V_MPEG4/ISO/AVC
    Duration                                 : 1h 15mn
    Bit rate                                 : 14.7 Mbps
    Width                                    : 1 920 pixels
    Height                                   : 1 080 pixels
    Display aspect ratio                     : 16:9
    Frame rate                               : 23.976 fps
    Color space                              : YUV
    Chroma subsampling                       : 4:2:0
    Bit depth                                : 8 bits
    Scan type                                : Progressive
    Bits/(Pixel*Frame)                       : 0.296
    Stream size                              : 7.80 GiB (95%)
    Writing library                          : x264 core
    Default                                  : Yes
    Forced                                   : No
    Color primaries                          : BT.709-5, BT.1361, IEC 61966-2-4, SMPTE RP177
    Transfer characteristics                 : BT.709-5, BT.1361
    Matrix coefficients                      : BT.709-5, BT.1361, IEC 61966-2-4 709, SMPTE RP177
    
    Audio
    ID                                       : 2
    Format                                   : AC-3
    Format/Info                              : Audio Coding 3
    Mode extension                           : CM (complete main)
    Muxing mode                              : Header stripping
    Codec ID                                 : A_AC3
    Duration                                 : 1h 15mn
    Bit rate mode                            : Constant
    Bit rate                                 : 448 Kbps
    Channel(s)                               : 6 channels
    Channel positions                        : Front: L C R, Side: L R, LFE
    Sampling rate                            : 48.0 KHz
    Bit depth                                : 16 bits
    Compression mode                         : Lossy
    Stream size                              : 243 MiB (3%)
    Language                                 : English
    Default                                  : Yes
    Forced                                   : No
    Nhấn nút Cảm ơn (dưới chân bài) để thấy link!
     
    Chỉnh sửa cuối: 25/2/12
    fsvnhd cảm ơn bài này.
  10. laumam

    laumam Well-Known Member

    Tham gia ngày:
    22/2/09
    Bài viết:
    1,644
    Đã được cảm ơn:
    2,180
    Ðề: Phim 3D Phần 3

    BEAUTY AND THE BEAST DTS OU_LTDuc_Phụ đề

    [​IMG]
    [​IMG]
    [​IMG]

    Mã:
    Format                                   : Matroska
    Format version                           : Version 2
    File size                                : 12.6 GiB
    Duration                                 : 1h 24mn
    Overall bit rate mode                    : Variable
    Overall bit rate                         : 21.3 Mbps
    Movie name                               : LTDuc_3DRip
    Encoded date                             : UTC 2012-02-19 15:11:55
    Writing application                      : mkvmerge v5.0.1 ('Es ist Sommer') built on Oct  9 2011 11:55:43
    Writing library                          : libebml v1.2.2 + libmatroska v1.3.0
    
    Video
    ID                                       : 1
    Format                                   : AVC
    Format/Info                              : Advanced Video Codec
    Format profile                           : [email protected]
    Format settings, CABAC                   : Yes
    Format settings, ReFrames                : 2 frames
    Muxing mode                              : Header stripping
    Codec ID                                 : V_MPEG4/ISO/AVC
    Duration                                 : 1h 24mn
    Bit rate                                 : 19.2 Mbps
    Width                                    : 1 920 pixels
    Height                                   : 1 080 pixels
    Display aspect ratio                     : 16:9
    Frame rate                               : 23.976 fps
    Color space                              : YUV
    Chroma subsampling                       : 4:2:0
    Bit depth                                : 8 bits
    Scan type                                : Progressive
    Bits/(Pixel*Frame)                       : 0.387
    Stream size                              : 11.4 GiB (90%)
    Writing library                          : x264 core
    Default                                  : Yes
    Forced                                   : No
    Color primaries                          : BT.709-5, BT.1361, IEC 61966-2-4, SMPTE RP177
    Transfer characteristics                 : BT.709-5, BT.1361
    Matrix coefficients                      : BT.709-5, BT.1361, IEC 61966-2-4 709, SMPTE RP177
    
    Audio
    ID                                       : 2
    Format                                   : DTS
    Format/Info                              : Digital Theater Systems
    Format profile                           : MA / Core
    Muxing mode                              : Header stripping
    Codec ID                                 : A_DTS
    Duration                                 : 1h 24mn
    Bit rate mode                            : Variable
    Bit rate                                 : 1 606 Kbps / 1 510 Kbps
    Channel(s)                               : 8 channels / 6 channels
    Channel positions                        : Front: L C R, Side: L R, Back: L R, LFE / Front: L C R, Side: L R, LFE
    Sampling rate                            : 48.0 KHz
    Bit depth                                : 24 bits
    Compression mode                         : Lossless / Lossy
    Language                                 : English
    Default                                  : Yes
    Forced                                   : No
    Nhấn nút Cảm ơn (dưới chân bài) để thấy link!
     
    Chỉnh sửa cuối: 16/3/12
    fsvnhd cảm ơn bài này.
  11. sissisdm

    sissisdm Member

    Tham gia ngày:
    6/10/10
    Bài viết:
    47
    Đã được cảm ơn:
    0
    Ðề: Phim 3D Phần 3

    Bác LAUNAM cho em hỏi tất cả các Phim trên đều là TRUE 3D cả phải ko bác?

    Và ai biết Phim "ONE WAY TRIP" có đáng xem ko ạ ? (cái này xin lỗi bác LAUNAM), vì HDD của em gần cạn rồi. Bây h Down đâu tầm 5 phim nữa thôi, em ko chỉ lưu 3D mà còn lưu cả mớ 1080P nữa, Những Phim với em ko thể xóa, nên em mới hỏi như thế!

    Bác LAUNAM cố làm nốt "journey 2 the mysterious island" rồi mới nghỉ được ko bác? Em quyết ko đến RAP xem phim này, để đợi bác up và ở nhà xem sướng hơn. THANKS bác lắm lắm! Mai làm lun 3 phim phía trên, chắc cắm máy từ sáng đến chiều, em chỉ down max được có 1M6.
     
  12. laumam

    laumam Well-Known Member

    Tham gia ngày:
    22/2/09
    Bài viết:
    1,644
    Đã được cảm ơn:
    2,180
    Ðề: Phim 3D Phần 3

    Phim "ONE WAY TRIP" do Áo (austria) sản xuất nhưng được Nga remux lại nên ko còn audio gốc , nó cũng là Real đó
     
  13. mrthanh_pro

    mrthanh_pro Member

    Tham gia ngày:
    14/1/10
    Bài viết:
    169
    Đã được cảm ơn:
    8
    Ðề: Phim 3D Phần 3

    Cám ơn bác vì cái tốp píc mới. Chúc bác mạnh khỏe, vui vẻ và hạnh phúc...để cống hiến cho cộng đồng thật nhiều :)
     
  14. sissisdm

    sissisdm Member

    Tham gia ngày:
    6/10/10
    Bài viết:
    47
    Đã được cảm ơn:
    0
    Ðề: Phim 3D Phần 3

    Không biết đến khi nào bác LAUNAM mới có nguồn 2 quả BOM NHIỆT HẠCH: Ghost Rider 2: Spirit of Vengeance 3DJourney 2: The Mysterious Island 3D cho chúng ta thưởng thức nhỉ =P~
     
  15. polts

    polts New Member

    Tham gia ngày:
    29/10/10
    Bài viết:
    120
    Đã được cảm ơn:
    5
    Ðề: Phim 3D Phần 3

    Welcome Back Mr. Lẫu Mắm!!!
    Em đi dọn HDD để chuẩn bị down tiếp thôi =P~
     
  16. sexyca

    sexyca Well-Known Member

    Tham gia ngày:
    17/4/11
    Bài viết:
    3,511
    Đã được cảm ơn:
    6,040
    Ðề: Phim 3D Phần 3

    Ủng hộ bác nhiệt tình đó. Mà thấy dòng chữ "...sau đó sẽ nghỉ hẳn luôn..." thấy buồn quá
     
  17. Connor

    Connor Well-Known Member

    Tham gia ngày:
    30/4/11
    Bài viết:
    378
    Đã được cảm ơn:
    393
    Ðề: Phim 3D Phần 3

    Còn Despicable me và legend of the guardians nữa, nếu có thời gian bác laumam làm luôn nhé
     
  18. x269

    x269 Member

    Tham gia ngày:
    16/11/09
    Bài viết:
    505
    Đã được cảm ơn:
    3
    Ðề: Phim 3D Phần 3

    Cám ơn bác laumam nhiều. Đợi bác up nhiều phim và sẽ không dừng hẳn để anh em còn mong chờ mỗi khi vào topic của bác/
     
  19. sissisdm

    sissisdm Member

    Tham gia ngày:
    6/10/10
    Bài viết:
    47
    Đã được cảm ơn:
    0
    Ðề: Phim 3D Phần 3

    Ai có VIETSUB của phim này cho em xin với ạ!

     
  20. laumam

    laumam Well-Known Member

    Tham gia ngày:
    22/2/09
    Bài viết:
    1,644
    Đã được cảm ơn:
    2,180
    Ðề: Phim 3D Phần 3

    MONSTER_HOUSE 3D DTS OU_LTDuc_Thuyết minh (Full Màn Hình)

    [​IMG]
    [​IMG]
    [​IMG]
    [​IMG]

    Mã:
    Format                                   : Matroska
    Format version                           : Version 2
    File size                                : 11.1 GiB
    Duration                                 : 1h 30mn
    Overall bit rate mode                    : Variable
    Overall bit rate                         : 17.5 Mbps
    Movie name                               : LTDuc_3DRip
    Encoded date                             : UTC 2012-02-20 15:23:52
    Writing application                      : mkvmerge v5.0.1 ('Es ist Sommer') built on Oct  9 2011 11:55:43
    Writing library                          : libebml v1.2.2 + libmatroska v1.3.0
    
    Video
    ID                                       : 1
    Format                                   : AVC
    Format/Info                              : Advanced Video Codec
    Format profile                           : [email protected]
    Format settings, CABAC                   : Yes
    Format settings, ReFrames                : 2 frames
    Muxing mode                              : Header stripping
    Codec ID                                 : V_MPEG4/ISO/AVC
    Duration                                 : 1h 30mn
    Bit rate                                 : 15.2 Mbps
    Width                                    : 1 920 pixels
    Height                                   : 1 080 pixels
    Display aspect ratio                     : 16:9
    Frame rate                               : 23.976 fps
    Color space                              : YUV
    Chroma subsampling                       : 4:2:0
    Bit depth                                : 8 bits
    Scan type                                : Progressive
    Bits/(Pixel*Frame)                       : 0.306
    Stream size                              : 9.64 GiB (87%)
    Writing library                          : x264 core
    Default                                  : Yes
    Forced                                   : No
    Color primaries                          : BT.709-5, BT.1361, IEC 61966-2-4, SMPTE RP177
    Transfer characteristics                 : BT.709-5, BT.1361
    Matrix coefficients                      : BT.709-5, BT.1361, IEC 61966-2-4 709, SMPTE RP177
    
    Audio #1
    ID                                       : 2
    Format                                   : DTS
    Format/Info                              : Digital Theater Systems
    Format profile                           : MA / Core
    Muxing mode                              : Header stripping
    Codec ID                                 : A_DTS
    Duration                                 : 1h 30mn
    Bit rate mode                            : Variable
    Bit rate                                 : 1 561 Kbps / 1 510 Kbps
    Channel(s)                               : 6 channels
    Channel positions                        : Front: L C R, Side: L R, LFE
    Sampling rate                            : 48.0 KHz
    Bit depth                                : 24 bits
    Compression mode                         : Lossless / Lossy
    Language                                 : English
    Default                                  : No
    Forced                                   : No
    
    Audio #2
    ID                                       : 3
    Format                                   : AC-3
    Format/Info                              : Audio Coding 3
    Mode extension                           : CM (complete main)
    Muxing mode                              : Header stripping
    Codec ID                                 : A_AC3
    Duration                                 : 1h 30mn
    Bit rate mode                            : Constant
    Bit rate                                 : 384 Kbps
    Channel(s)                               : 2 channels
    Channel positions                        : Front: L R
    Sampling rate                            : 48.0 KHz
    Bit depth                                : 16 bits
    Compression mode                         : Lossy
    Delay relative to video                  : 16ms
    Stream size                              : 249 MiB (2%)
    Language                                 : Vietnamese
    Default                                  : Yes
    Forced                                   : No
    Nhấn nút Cảm ơn (dưới chân bài) để thấy link!
     
    Chỉnh sửa cuối: 27/2/12
    fsvnhd cảm ơn bài này.

Chia sẻ trang này