Phim 3D Dành cho TV3D (Phần 2)

Thảo luận trong '3D' bắt đầu bởi laumam, 28/1/12.

  1. laumam

    laumam Well-Known Member

    Tham gia ngày:
    22/2/09
    Bài viết:
    1,644
    Đã được cảm ơn:
    2,190
    Tiếp tục với những bộ phim 3D mới nhất , cũng như các bộ phim đã cũ nhưng với hình ảnh và âm thanh tuyệt vời , mình post lên đây để cùng chia sẻ và thỏa mãn những fan đam mê phim 3D. Mong các bạn có ý kiến đóng góp để làm cho topic này sôi động và riêng mình cũng sẽ đón nhận nhằm có được những bản Rip đẹp hơn

    1 Transformers Dark Of The Moon 3D AC3 & DTS SBS_LTDuc_Phụ Đề_Thuyết Minh (Full Màn Hình)
    2 Streetdance 3D DTS OU_LTDuc_Thuyết Minh
    3 The Hole 3D DTS OU_LTDuc_Thuyết Minh
    4 How To Train Your Dragon AC3 OU_LTDuc-Phụ Đề (Full Màn Hình)

    6 Tangled 3D DTS OU_LTDuc_Thuyết Minh

    7 Sammy's Adventure The Secret Passage AC3 SBS_LTDuc_Phụ Đề
    8 A Very Harold And Kumar Christmas 3D DTS SBS_LTDuc-Phụ Đề (Full Màn Hình)
    15 The Three Musketeers 3D DTS OU_LTDuc_Phụ Đề (Full Màn Hình)
    16 RONAL BARBAREN 3D DTS OU_LTDuc (Full màn Hình)
    21 (Reup) KUNG_FU_PANDA_2_3D_ 1080P_TRUE HD 7.1_OU_ThuyetMinh (Full Màn Hình)
    24 PUSS IN BOOTS 3D 2011 DD5.1 SBS_LTDuc_Phụ Đề (Full Màn Hình)
     
    Chỉnh sửa cuối: 8/7/12
    asm07 cảm ơn bài này.
  2. laumam

    laumam Well-Known Member

    Tham gia ngày:
    22/2/09
    Bài viết:
    1,644
    Đã được cảm ơn:
    2,190
    Ðề: Phim 3D Dành cho TV3D (Phần 2)

    Transformers Dark Of The Moon 3D AC3 & DTS SBS_LTDuc_Phụ Đề_Thuyết Minh (Full Màn Hình)

    [​IMG]
    [​IMG]
    [​IMG]
    [​IMG]
    [​IMG]
    Mã:
    Format                                   : Matroska
    Format version                           : Version 2
    File size                                : 17.7 GiB
    Duration                                 : 2h 34mn
    Overall bit rate                         : 16.4 Mbps
    Movie name                               : LTDuc_3DRip
    Encoded date                             : UTC 2012-01-29 07:58:04
    Writing application                      : mkvmerge v5.0.1 ('Es ist Sommer') built on Oct  9 2011 11:55:43
    Writing library                          : libebml v1.2.2 + libmatroska v1.3.0
    
    Video
    ID                                       : 1
    Format                                   : AVC
    Format/Info                              : Advanced Video Codec
    Format profile                           : [email protected]
    Format settings, CABAC                   : Yes
    Format settings, ReFrames                : 2 frames
    Muxing mode                              : Header stripping
    Codec ID                                 : V_MPEG4/ISO/AVC
    Duration                                 : 2h 34mn
    Bit rate                                 : 13.9 Mbps
    Width                                    : 1 920 pixels
    Height                                   : 1 080 pixels
    Display aspect ratio                     : 16:9
    Frame rate                               : 23.976 fps
    Color space                              : YUV
    Chroma subsampling                       : 4:2:0
    Bit depth                                : 8 bits
    Scan type                                : Progressive
    Bits/(Pixel*Frame)                       : 0.280
    Stream size                              : 15.0 GiB (85%)
    Writing library                          : x264 core
    Color primaries                          : BT.709-5, BT.1361, IEC 61966-2-4, SMPTE RP177
    Transfer characteristics                 : BT.709-5, BT.1361
    Matrix coefficients                      : BT.709-5, BT.1361, IEC 61966-2-4 709, SMPTE RP177
    
    Audio #1
    ID                                       : 2
    Format                                   : DTS
    Format/Info                              : Digital Theater Systems
    Muxing mode                              : Header stripping
    Codec ID                                 : A_DTS
    Duration                                 : 2h 34mn
    Bit rate mode                            : Constant
    Bit rate                                 : 1 510 Kbps
    Channel(s)                               : 6 channels
    Channel positions                        : Front: L C R, Side: L R, LFE
    Sampling rate                            : 48.0 KHz
    Bit depth                                : 24 bits
    Compression mode                         : Lossy
    Stream size                              : 1.63 GiB (9%)
    Language                                 : Vietnamese
    
    Audio #2
    ID                                       : 3
    Format                                   : AC-3
    Format/Info                              : Audio Coding 3
    Mode extension                           : CM (complete main)
    Muxing mode                              : Header stripping
    Codec ID                                 : A_AC3
    Duration                                 : 2h 34mn
    Bit rate mode                            : Constant
    Bit rate                                 : 640 Kbps
    Channel(s)                               : 6 channels
    Channel positions                        : Front: L C R, Side: L R, LFE
    Sampling rate                            : 48.0 KHz
    Bit depth                                : 16 bits
    Compression mode                         : Lossy
    Stream size                              : 707 MiB (4%)
    Language                                 : English
    Nhấn nút Cảm ơn (dưới chân bài) để thấy link!
     
    Chỉnh sửa cuối: 30/1/12
    fsvnhd cảm ơn bài này.
  3. laumam

    laumam Well-Known Member

    Tham gia ngày:
    22/2/09
    Bài viết:
    1,644
    Đã được cảm ơn:
    2,190
    Ðề: Phim 3D Dành cho TV3D (Phần 2)

    Streetdance 3D DTS OU_LTDuc_Thuyết Minh

    [​IMG]
    [​IMG]
    [​IMG]
    [​IMG]

    Mã:
    Format                                   : Matroska
    Format version                           : Version 2
    File size                                : 12.0 GiB
    Duration                                 : 1h 38mn
    Overall bit rate                         : 17.4 Mbps
    Movie name                               : LTDuc_3DRip
    Encoded date                             : UTC 2012-01-21 12:20:09
    Writing application                      : mkvmerge v5.0.1 ('Es ist Sommer') built on Oct  9 2011 11:55:43
    Writing library                          : libebml v1.2.2 + libmatroska v1.3.0
    
    Video
    ID                                       : 2
    Format                                   : AVC
    Format/Info                              : Advanced Video Codec
    Format profile                           : [email protected]
    Format settings, CABAC                   : Yes
    Format settings, ReFrames                : 2 frames
    Muxing mode                              : Header stripping
    Codec ID                                 : V_MPEG4/ISO/AVC
    Duration                                 : 1h 38mn
    Bit rate                                 : 15.2 Mbps
    Width                                    : 1 920 pixels
    Height                                   : 1 080 pixels
    Display aspect ratio                     : 16:9
    Frame rate                               : 23.976 fps
    Color space                              : YUV
    Chroma subsampling                       : 4:2:0
    Bit depth                                : 8 bits
    Scan type                                : Progressive
    Bits/(Pixel*Frame)                       : 0.310
    Stream size                              : 10.5 GiB (87%)
    Writing library                          : x264 core
    Color primaries                          : BT.709-5, BT.1361, IEC 61966-2-4, SMPTE RP177
    Transfer characteristics                 : BT.709-5, BT.1361
    Matrix coefficients                      : BT.709-5, BT.1361, IEC 61966-2-4 709, SMPTE RP177
    
    Audio #1
    ID                                       : 1
    Format                                   : MPEG Audio
    Format version                           : Version 1
    Format profile                           : Layer 3
    Muxing mode                              : Header stripping
    Codec ID                                 : A_MPEG/L3
    Codec ID/Hint                            : MP3
    Duration                                 : 1h 38mn
    Bit rate mode                            : Constant
    Bit rate                                 : 320 Kbps
    Channel(s)                               : 2 channels
    Sampling rate                            : 48.0 KHz
    Compression mode                         : Lossy
    Stream size                              : 226 MiB (2%)
    Language                                 : Vietnamese
    
    Audio #2
    ID                                       : 3
    Format                                   : DTS
    Format/Info                              : Digital Theater Systems
    Muxing mode                              : Header stripping
    Codec ID                                 : A_DTS
    Duration                                 : 1h 38mn
    Bit rate mode                            : Constant
    Bit rate                                 : 1 510 Kbps
    Channel(s)                               : 6 channels
    Channel positions                        : Front: L C R, Side: L R, LFE
    Sampling rate                            : 48.0 KHz
    Bit depth                                : 24 bits
    Compression mode                         : Lossy
    Stream size                              : 1.04 GiB (9%)
    Language                                 : English
    Nhấn nút Cảm ơn (dưới chân bài) để thấy link!
     
    Chỉnh sửa cuối: 30/1/12
    fsvnhd cảm ơn bài này.
  4. laumam

    laumam Well-Known Member

    Tham gia ngày:
    22/2/09
    Bài viết:
    1,644
    Đã được cảm ơn:
    2,190
    Ðề: Phim 3D Dành cho TV3D (Phần 2)

    The Hole 3D DTS OU_LTDuc_Thuyết Minh

    [​IMG]
    [​IMG]
    [​IMG]
    [​IMG]

    Mã:
    Format                                   : Matroska
    Format version                           : Version 2
    File size                                : 11.1 GiB
    Duration                                 : 1h 32mn
    Overall bit rate                         : 17.2 Mbps
    Movie name                               : LTDuc_3DRip
    Encoded date                             : UTC 2012-01-20 15:11:30
    Writing application                      : mkvmerge v5.0.1 ('Es ist Sommer') built on Oct  9 2011 11:55:43
    Writing library                          : libebml v1.2.2 + libmatroska v1.3.0
    
    Video
    ID                                       : 2
    Format                                   : AVC
    Format/Info                              : Advanced Video Codec
    Format profile                           : [email protected]
    Format settings, CABAC                   : Yes
    Format settings, ReFrames                : 2 frames
    Muxing mode                              : Header stripping
    Codec ID                                 : V_MPEG4/ISO/AVC
    Duration                                 : 1h 32mn
    Width                                    : 1 920 pixels
    Height                                   : 1 080 pixels
    Display aspect ratio                     : 16:9
    Frame rate                               : 23.976 fps
    Color space                              : YUV
    Chroma subsampling                       : 4:2:0
    Bit depth                                : 8 bits
    Scan type                                : Progressive
    Writing library                          : x264 core
    Color primaries                          : BT.709-5, BT.1361, IEC 61966-2-4, SMPTE RP177
    Transfer characteristics                 : BT.709-5, BT.1361
    Matrix coefficients                      : BT.709-5, BT.1361, IEC 61966-2-4 709, SMPTE RP177
    
    Audio #1
    ID                                       : 1
    Format                                   : AAC
    Format/Info                              : Advanced Audio Codec
    Format profile                           : LC
    Codec ID                                 : A_AAC
    Duration                                 : 1h 32mn
    Channel(s)                               : 2 channels
    Channel positions                        : Front: L R
    Sampling rate                            : 44.1 KHz
    Compression mode                         : Lossy
    Language                                 : Vietnamese
    
    Audio #2
    ID                                       : 3
    Format                                   : DTS
    Format/Info                              : Digital Theater Systems
    Muxing mode                              : Header stripping
    Codec ID                                 : A_DTS
    Duration                                 : 1h 32mn
    Bit rate mode                            : Constant
    Bit rate                                 : 1 510 Kbps
    Channel(s)                               : 6 channels
    Channel positions                        : Front: L C R, Side: L R, LFE
    Sampling rate                            : 48.0 KHz
    Bit depth                                : 16 bits
    Compression mode                         : Lossy
    Stream size                              : 1 000 MiB (9%)
    Language                                 : English
    Nhấn nút Cảm ơn (dưới chân bài) để thấy link!
     
    Chỉnh sửa cuối: 31/1/12
    maichinhtam and fsvnhd like this.
  5. laumam

    laumam Well-Known Member

    Tham gia ngày:
    22/2/09
    Bài viết:
    1,644
    Đã được cảm ơn:
    2,190
    Ðề: Phim 3D Dành cho TV3D (Phần 2)

    How To Train Your Dragon AC3 OU_LTDuc-Phụ Đề (Full Màn Hình)

    [​IMG]
    [​IMG]
    [​IMG]
    [​IMG]

    Mã:
    Format                                   : Matroska
    Format version                           : Version 2
    File size                                : 10.6 GiB
    Duration                                 : 1h 37mn
    Overall bit rate                         : 15.4 Mbps
    Movie name                               : LTDuc_3DRip
    Encoded date                             : UTC 2012-01-23 08:42:18
    Writing library                          : libebml v0.7.8 + libmatroska v0.8.1
    
    Video
    ID                                       : 1
    Format                                   : AVC
    Format/Info                              : Advanced Video Codec
    Format profile                           : [email protected]
    Format settings, CABAC                   : Yes
    Format settings, ReFrames                : 2 frames
    Codec ID                                 : V_MPEG4/ISO/AVC
    Duration                                 : 1h 37mn
    Bit rate                                 : 14.7 Mbps
    Width                                    : 1 920 pixels
    Height                                   : 1 088 pixels
    Display aspect ratio                     : 16:9
    Frame rate                               : 23.976 fps
    Color space                              : YUV
    Chroma subsampling                       : 4:2:0
    Bit depth                                : 8 bits
    Scan type                                : Progressive
    Bits/(Pixel*Frame)                       : 0.293
    Stream size                              : 10.0 GiB (95%)
    Writing library                          : x264 core
    Color primaries                          : BT.709-5, BT.1361, IEC 61966-2-4, SMPTE RP177
    Transfer characteristics                 : BT.709-5, BT.1361
    Matrix coefficients                      : BT.709-5, BT.1361, IEC 61966-2-4 709, SMPTE RP177
    
    Audio
    ID                                       : 2
    Format                                   : AC-3
    Format/Info                              : Audio Coding 3
    Mode extension                           : CM (complete main)
    Codec ID                                 : A_AC3
    Duration                                 : 1h 37mn
    Bit rate mode                            : Constant
    Bit rate                                 : 448 Kbps
    Channel(s)                               : 6 channels
    Channel positions                        : Front: L C R, Side: L R, LFE
    Sampling rate                            : 48.0 KHz
    Bit depth                                : 16 bits
    Compression mode                         : Lossy
    Stream size                              : 314 MiB (3%)
    Language                                 : English
    ]

    Nhấn nút Cảm ơn (dưới chân bài) để thấy link!
     
    Chỉnh sửa cuối: 31/1/12
    fsvnhd cảm ơn bài này.
  6. laumam

    laumam Well-Known Member

    Tham gia ngày:
    22/2/09
    Bài viết:
    1,644
    Đã được cảm ơn:
    2,190
    Ðề: Phim 3D Dành cho TV3D (Phần 2)

    The Smurfs 3D AC3 OU_LTDuc_Thuyết minh

    [​IMG]
    [​IMG]
    [​IMG]
    [​IMG]

    Mã:
    Format                                   : Matroska
    Format version                           : Version 2
    File size                                : 12.2 GiB
    Duration                                 : 1h 42mn
    Overall bit rate                         : 17.0 Mbps
    Movie name                               : LTDuc_3DRip
    Encoded date                             : UTC 2012-01-19 10:46:31
    Writing application                      : mkvmerge v5.0.1 ('Es ist Sommer') built on Oct  9 2011 11:55:43
    Writing library                          : libebml v1.2.2 + libmatroska v1.3.0
    
    Video
    ID                                       : 1
    Format                                   : AVC
    Format/Info                              : Advanced Video Codec
    Format profile                           : [email protected]
    Format settings, CABAC                   : Yes
    Format settings, ReFrames                : 2 frames
    Muxing mode                              : Header stripping
    Codec ID                                 : V_MPEG4/ISO/AVC
    Duration                                 : 1h 42mn
    Bit rate                                 : 15.6 Mbps
    Width                                    : 1 920 pixels
    Height                                   : 1 080 pixels
    Display aspect ratio                     : 16:9
    Frame rate                               : 23.976 fps
    Color space                              : YUV
    Chroma subsampling                       : 4:2:0
    Bit depth                                : 8 bits
    Scan type                                : Progressive
    Bits/(Pixel*Frame)                       : 0.313
    Stream size                              : 11.2 GiB (92%)
    Writing library                          : x264 core
    Color primaries                          : BT.709-5, BT.1361, IEC 61966-2-4, SMPTE RP177
    Transfer characteristics                 : BT.709-5, BT.1361
    Matrix coefficients                      : BT.709-5, BT.1361, IEC 61966-2-4 709, SMPTE RP177
    
    Audio #1
    ID                                       : 2
    Format                                   : AC-3
    Format/Info                              : Audio Coding 3
    Mode extension                           : CM (complete main)
    Muxing mode                              : Header stripping
    Codec ID                                 : A_AC3
    Duration                                 : 1h 42mn
    Bit rate mode                            : Constant
    Bit rate                                 : 448 Kbps
    Channel(s)                               : 6 channels
    Channel positions                        : Front: L C R, Side: L R, LFE
    Sampling rate                            : 48.0 KHz
    Bit depth                                : 16 bits
    Compression mode                         : Lossy
    Stream size                              : 329 MiB (3%)
    Language                                 : English
    
    Audio #2
    ID                                       : 3
    Format                                   : AC-3
    Format/Info                              : Audio Coding 3
    Mode extension                           : CM (complete main)
    Muxing mode                              : Header stripping
    Codec ID                                 : A_AC3
    Duration                                 : 1h 42mn
    Bit rate mode                            : Constant
    Bit rate                                 : 640 Kbps
    Channel(s)                               : 6 channels
    Channel positions                        : Front: L C R, Side: L R, LFE
    Sampling rate                            : 48.0 KHz
    Bit depth                                : 16 bits
    Compression mode                         : Lossy
    Stream size                              : 470 MiB (4%)
    Language                                 : Vietnamese
     
    Chỉnh sửa cuối: 8/7/12
  7. laumam

    laumam Well-Known Member

    Tham gia ngày:
    22/2/09
    Bài viết:
    1,644
    Đã được cảm ơn:
    2,190
    Ðề: Phim 3D Dành cho TV3D (Phần 2)

    Tangled 3D DTS OU_LTDuc_Thuyết Minh

    [​IMG]
    [​IMG]
    [​IMG]
    [​IMG]

    Mã:
    Format                                   : Matroska
    Format version                           : Version 2
    File size                                : 14.4 GiB
    Duration                                 : 1h 40mn
    Overall bit rate mode                    : Variable
    Overall bit rate                         : 20.6 Mbps
    Movie name                               : LTDuc_3DRip
    Encoded date                             : UTC 2012-01-16 00:22:37
    Writing application                      : mkvmerge v5.0.1 ('Es ist Sommer') built on Oct  9 2011 11:55:43
    Writing library                          : libebml v1.2.2 + libmatroska v1.3.0
    
    Video
    ID                                       : 2
    Format                                   : AVC
    Format/Info                              : Advanced Video Codec
    Format profile                           : [email protected]
    Format settings, CABAC                   : Yes
    Format settings, ReFrames                : 2 frames
    Muxing mode                              : Header stripping
    Codec ID                                 : V_MPEG4/ISO/AVC
    Duration                                 : 1h 40mn
    Width                                    : 1 920 pixels
    Height                                   : 1 080 pixels
    Display aspect ratio                     : 16:9
    Frame rate                               : 23.976 fps
    Color space                              : YUV
    Chroma subsampling                       : 4:2:0
    Bit depth                                : 8 bits
    Scan type                                : Progressive
    Writing library                          : x264 core
    Color primaries                          : BT.709-5, BT.1361, IEC 61966-2-4, SMPTE RP177
    Transfer characteristics                 : BT.709-5, BT.1361
    Matrix coefficients                      : BT.709-5, BT.1361, IEC 61966-2-4 709, SMPTE RP177
    
    Audio #1
    ID                                       : 1
    Format                                   : AAC
    Format/Info                              : Advanced Audio Codec
    Format profile                           : LC
    Codec ID                                 : A_AAC
    Duration                                 : 1h 40mn
    Channel(s)                               : 2 channels
    Channel positions                        : Front: L R
    Sampling rate                            : 48.0 KHz
    Compression mode                         : Lossy
    Language                                 : Vietnamese
    
    Audio #2
    ID                                       : 3
    Format                                   : DTS
    Format/Info                              : Digital Theater Systems
    Format profile                           : MA / Core
    Muxing mode                              : Header stripping
    Codec ID                                 : A_DTS
    Duration                                 : 1h 40mn
    Bit rate mode                            : Variable
    Bit rate                                 : 3 292 Kbps / 1 510 Kbps
    Channel(s)                               : 8 channels / 6 channels
    Channel positions                        : Front: L C R, Side: L R, Back: L R, LFE / Front: L C R, Side: L R, LFE
    Sampling rate                            : 48.0 KHz
    Bit depth                                : 24 bits
    Compression mode                         : Lossless / Lossy
    Language                                 : English
    
    Audio #3
    ID                                       : 4
    Format                                   : AC-3
    Format/Info                              : Audio Coding 3
    Format profile                           : Dolby Digital
    Mode extension                           : CM (complete main)
    Muxing mode                              : Header stripping
    Codec ID                                 : A_AC3
    Duration                                 : 1h 40mn
    Bit rate mode                            : Constant
    Bit rate                                 : 320 Kbps
    Channel(s)                               : 2 channels
    Channel positions                        : Front: L R
    Sampling rate                            : 48.0 KHz
    Bit depth                                : 16 bits
    Compression mode                         : Lossy
    Stream size                              : 230 MiB (2%)
    Language                                 : English
    Nhấn nút Cảm ơn (dưới chân bài) để thấy link!
     
    Chỉnh sửa cuối: 2/2/12
    fsvnhd cảm ơn bài này.
  8. Connor

    Connor Well-Known Member

    Tham gia ngày:
    30/4/11
    Bài viết:
    378
    Đã được cảm ơn:
    394
    Ðề: Phim 3D Dành cho TV3D (Phần 2)

    Mở hàng cho bác chủ :D cuối cùng cũng có Tangled \m/
     
  9. dvhuy

    dvhuy New Member

    Tham gia ngày:
    10/10/09
    Bài viết:
    473
    Đã được cảm ơn:
    7
    Ðề: Phim 3D Dành cho TV3D (Phần 2)

    Bác làm luôn dùm em 2 film hôm bữa em nhờ bác là S.O.S Planet 2002 và adventures sammy's 2010 luôn nha bác . Đợi tin vui của bác .
     
  10. Roland

    Roland Well-Known Member

    Tham gia ngày:
    1/9/11
    Bài viết:
    733
    Đã được cảm ơn:
    45
    Nơi ở:
    Việt Nam
    Ðề: Phim 3D Dành cho TV3D (Phần 2)

    Em cũng chờ phim SOS Planet lun.
     
  11. sunshine1410

    sunshine1410 Active Member

    Tham gia ngày:
    12/12/09
    Bài viết:
    411
    Đã được cảm ơn:
    248
    Ðề: Phim 3D Dành cho TV3D (Phần 2)

    Làm luôn là làm luôn cái gì, 2 phim trên mà có thuyết minh thì tuyệt cú mèo
     
  12. lamalam

    lamalam Member

    Tham gia ngày:
    13/6/10
    Bài viết:
    63
    Đã được cảm ơn:
    14
    Ðề: Phim 3D Dành cho TV3D (Phần 2)

    post lên fshare nhé. mà cho xin cái transformers trước đi
     
  13. hdd-hdp

    hdd-hdp New Member

    Tham gia ngày:
    28/2/11
    Bài viết:
    534
    Đã được cảm ơn:
    20
    Nghề nghiệp:
    Kinh Doanh
    Nơi ở:
    Ha Noi-Viet Nam
    Ðề: Phim 3D Dành cho TV3D (Phần 2)

    Phim của LTDuc Rip thì luôn chất lượng và có thể nói là chất nhất trong những nhóm Rip, convert 3D.
    Bác nào biết thông tin về nhóm Rip này thì Show cho ae biết với nhé! Thanks! hi
     
  14. hungmh80

    hungmh80 Active Member

    Tham gia ngày:
    4/2/10
    Bài viết:
    568
    Đã được cảm ơn:
    18
    Nghề nghiệp:
    Nhân viên nhà nước
    Nơi ở:
    Việt Nam
    Ðề: Phim 3D Dành cho TV3D (Phần 2)

    Ráng chờ 2 ngày nữa
     
  15. a dat

    a dat Well-Known Member

    Tham gia ngày:
    31/1/11
    Bài viết:
    372
    Đã được cảm ơn:
    582
    Giới tính:
    Nam
    Ðề: Phim 3D Dành cho TV3D (Phần 2)

    lại đánh dấu để từ từ tải.thanks bác nhiều nhiều
     
  16. laumam

    laumam Well-Known Member

    Tham gia ngày:
    22/2/09
    Bài viết:
    1,644
    Đã được cảm ơn:
    2,190
    Ðề: Phim 3D Dành cho TV3D (Phần 2)

    sẽ có 2 phim này sau khi up xong các phim ở trang 1
     
  17. leminhkien76

    leminhkien76 New Member

    Tham gia ngày:
    26/11/11
    Bài viết:
    1
    Đã được cảm ơn:
    0
    Ðề: Phim 3D Dành cho TV3D (Phần 2)

    Loi dau tien chuc ban nam moi tran day niem vui va hanh phuc nhe.
    Ban huong dan minh lam sao download tat ca phim tren dien dan ve nhe.
    dia chi email: [email protected]
     
  18. mayhaboi

    mayhaboi Banned

    Tham gia ngày:
    22/11/10
    Bài viết:
    28
    Đã được cảm ơn:
    1
    Ðề: Phim 3D Dành cho TV3D (Phần 2)

    Bác làm 2 bộ Smufth+ Transformer trước nha pác. thanks với tinh thần làm phim của bạn
     
  19. lamalam

    lamalam Member

    Tham gia ngày:
    13/6/10
    Bài viết:
    63
    Đã được cảm ơn:
    14
    Ðề: Phim 3D Dành cho TV3D (Phần 2)

    mai cố gắng up sớm sớm. sáng càng tốt, em hứng lắm rồi:D ( đặc biệt là transformers)
     
  20. lamalam

    lamalam Member

    Tham gia ngày:
    13/6/10
    Bài viết:
    63
    Đã được cảm ơn:
    14
    Ðề: Phim 3D Dành cho TV3D (Phần 2)

    10h30 rồi, mà chả thấy link đâu ??????????????????????
     

Chia sẻ trang này