Phim 3D dành cho TV 3D thụ đông (Passive)

Thảo luận trong '3D' bắt đầu bởi laumam, 10/12/11.

  1. laumam

    laumam Well-Known Member

    Tham gia ngày:
    22/2/09
    Bài viết:
    1,644
    Đã được cảm ơn:
    2,176
    Sau thời gian tìm hiểu về TV 3D dòng Chủ động và Thụ động và 1 số tool Rip 3D , mình đã hoàn thành một số bộ phim 3D, địng dạng OVER UNDER cho dòng TV 3D thụ dộng như TV 3D LG ....
    Đặc điiểm :
    Tương thích hoàn toàn với TV 3D thụ động , không gặp phải những trường hợp thường gặp trên diễn đàn : sao ko play được , hoặc ko có 3D của 1 số phim 3D Side by Side
    Với TV LCD thường hay Monitor ,dùng PC kết nối play bằng soft TMT5 , dùng kính Red Cyan coi qua định dạng Anaglyph sẽ có hình ảnh sáng hơn , màu sắc trung thực hơn và đặc biệt không có bòng mờ thường thấy ở định dạng này
    Tất cả phim 3D mình up lên đây , mình Rip từ source Phim 3D bluray gốc sang định dạng Over Under. Ở định dạng này ,ta sẽ có độ phân giải 1080 trung thực hơn và nếu chơi cùng phự đề rời sẽ ko bị ảnh hưởng chia đôi như định dạng SBS hay thường gặp
    Ở đây mình nói lên rằng kg phải là ko xem được trên TV 3D chủ động như SSung , Sony , Panasonic.......nhé

    Mình sẽ up lên từ từ toàn bộ phim Real 3D , các bạn down về xem và cho ý kiến


    01 SPORTS_ILLUSTRATED_3D_1080_DTS_O/U
    02 KUNG_FU_PANDA_2_3D_ 1080P_TRUE HD 7.1_OU
    03 Fright Night 3D 2011 1080 OU_Thuyết Minh
    04 Tekken Blood Vengeance 2011 1080 English DTS OU-Phụ đề
    05 3D_SEX_AND_ZENE_xtreme Ecstasy 2011_1080_DTS_Chinesse_OU_Phụ Đề
    06 Resident Evil Afterlife 1080P_OU_ Thuyết Minh
    07 Saw 3D the final chapter 1080-OU-Phụ Đề
    08 Dolphin Tale 2011 3D 1080P DTS HD-OU

    09 Avatar 1080P OU for TV3D_Thuyết Minh
    10 RIO 3D DTS HD OU_LTDuc_Thuyết Minh
    11 STEP UP 3D 1080 DTS OU_LTDuc_Phụ Đề
    12 Glee The 3D Concert Movie 2011 3D 1080p AVC DTS-HD &AC3_OU_LTDuc
    13 FINAL DESTINATION 5 3D 1080 DTS-MA 5.1_OU_LTDuc Phụ đề
    14 CHILDS EYE 3D 1080 DTS Chinese OU_LTDuc_Thuyết Minh
    15 Tales of the Night 3D French DTS OU_LTDuc (CONTES DE LA NUIT)
    16 SOLID STATE SOCIETY 3D english OU_LTDuc
    17 THE PRODIGIES 3D DTS French OU_LTDuc
    18 DRIVE ANGRY 3D 1080 DTS OU_LTDuc
    19 Final destination 4 3D 1080 DTS OU_LTDuc
    20 NATALI 3D1080 DTS Korean OU_LTDuc_Phụ Đề
    21 MY BLOODY VALENTINE 3D 1080 DTS OU_LTDuc_Phụ Đề

    22 HIDDEN 3D 1080 DTS OU_LTDuc_Phụ Đề
    22 Pirates Caribbean On Stranger Tides 3D DTS OU_LTDuc_Thuyết Minh (Bản Full Màn Hình)
    23 TIMELESS TAIWAN Chinese DTS OU_LTDuc
    24 DEEP GOLD 3D 1080 DTS OU_LTDuc
    25 Shark Night 3D 1080 DTS OU_LTDuc_Thuyết Minh
    26 World War II in 3D DTS OU_LTDuc (Lịch Sử Chiến Tranh)
    27 Sleepwalker in 3D 2011 DTS SBS_LTDuc_ Phụ Đề

    SPORTS_ILLUSTRATED_3D_1080_DTS_O/U_For 3DTV_PassivePolarized​


    [​IMG]
    [​IMG]
    [​IMG]
    [​IMG]
    [​IMG]

    Mã:
    General
    Unique ID                                : 174470813806286756750018279507323844924 (0x8341DB41D26D84738D64E32CDA2CF93C)
    Complete name                            : D:\PHIM\SPORTS_ILLUSTRATED_3D\SPORTS_ILLUSTRATED_3D_1080_DTS_For 3DTV_PassivePolarized.mkv
    Format                                   : Matroska
    Format version                           : Version 2
    File size                                : 6.20 GiB
    Duration                                 : 30mn 5s
    Overall bit rate mode                    : Variable
    Overall bit rate                         : 29.5 Mbps
    Movie name                               : SPORTS_ILLUSTRATED_3D_Le Trong Duc
    Encoded date                             : UTC 2011-12-08 21:39:38
    Writing library                          : libebml v0.7.8 + libmatroska v0.8.1
    
    Video
    ID                                       : 1
    Format                                   : AVC
    Format/Info                              : Advanced Video Codec
    Format profile                           : [email protected]
    Format settings, CABAC                   : Yes
    Format settings, ReFrames                : 2 frames
    Codec ID                                 : V_MPEG4/ISO/AVC
    Duration                                 : 30mn 5s
    Bit rate                                 : 27.4 Mbps
    Width                                    : 1 920 pixels
    Height                                   : 1 080 pixels
    Display aspect ratio                     : 16:9
    Frame rate                               : 23.976 fps
    Color space                              : YUV
    Chroma subsampling                       : 4:2:0
    Bit depth                                : 8 bits
    Scan type                                : Progressive
    Bits/(Pixel*Frame)                       : 0.550
    Stream size                              : 5.75 GiB (93%)
    Writing library                          : x264 core
    Color primaries                          : BT.709-5, BT.1361, IEC 61966-2-4, SMPTE RP177
    Transfer characteristics                 : BT.709-5, BT.1361
    Matrix coefficients                      : BT.709-5, BT.1361, IEC 61966-2-4 709, SMPTE RP177
    
    Audio
    ID                                       : 2
    Format                                   : DTS
    Format/Info                              : Digital Theater Systems
    Format profile                           : MA / Core
    Codec ID                                 : A_DTS
    Duration                                 : 30mn 5s
    Bit rate mode                            : Variable
    Bit rate                                 : 1 561 Kbps / 1 510 Kbps
    Channel(s)                               : 6 channels
    Channel positions                        : Front: L C R, Side: L R, LFE
    Sampling rate                            : 48.0 KHz
    Bit depth                                : 24 bits
    Compression mode                         : Lossless / Lossy
    Language                                 : English
    
    Menu
    00:00:00.000                             : en:(01)00:00:00:000
    00:01:14.491                             : en:(02)00:01:14:491
    00:03:27.582                             : en:(03)00:03:27:582
    00:06:39.565                             : en:(04)00:06:39:565
    00:08:49.195                             : en:(05)00:08:49:195
    00:10:42.475                             : en:(06)00:10:42:475
    00:12:14.233                             : en:(07)00:12:14:233
    00:14:21.443                             : en:(08)00:14:21:443
    00:15:52.576                             : en:(09)00:15:52:576
    00:16:56.807                             : en:(10)00:16:56:807
    00:19:30.002                             : en:(11)00:19:30:002
    00:20:19.426                             : en:(12)00:20:19:426
    00:22:27.346                             : en:(13)00:22:27:346
    00:23:22.859                             : en:(14)00:23:22:859
    00:25:18.016                             : en:(15)00:25:18:016
    00:27:31.983                             : en:(16)00:27:31:983
    1 Link 6.2 Gb
    Nhấn nút Cảm ơn (dưới chân bài) để thấy link!
     
    Chỉnh sửa cuối: 29/10/12
    fsvnhd, tailoc69, Luxo and 5 others like this.
  2. donhuminhkhoa

    donhuminhkhoa Well-Known Member

    Tham gia ngày:
    12/10/09
    Bài viết:
    790
    Đã được cảm ơn:
    861
    Ðề: Phim 3D dành cho TV 3D thụ đông (Passive)

    Rất hay ủng hộ cả hai tay
     
  3. laumam

    laumam Well-Known Member

    Tham gia ngày:
    22/2/09
    Bài viết:
    1,644
    Đã được cảm ơn:
    2,176
    Ðề: Phim 3D dành cho TV 3D thụ đông (Passive)

    Thank bạn , vì còn bận chắc thứ hai 12/12 mới up được phim Kungfu 2 và fright night có thuyết minh , các bạn chờ nhé
     
    Chỉnh sửa cuối: 29/10/12
  4. haipvg

    haipvg Well-Known Member

    Tham gia ngày:
    1/11/08
    Bài viết:
    91
    Đã được cảm ơn:
    1,022
    Ðề: Phim 3D dành cho TV 3D thụ đông (Passive)

    Tuyệt cú mèo, thank bác nhé. Chờ bản Kungfu panda 2 của bác. Bản của leedhd hình như là ngược bên xem khó kinh.
    Với lại có thêm 1 đề nghị nho nhỏ là bác rip độ 10G cho nó chất lượng.
     
  5. laumam

    laumam Well-Known Member

    Tham gia ngày:
    22/2/09
    Bài viết:
    1,644
    Đã được cảm ơn:
    2,176
    Ðề: Phim 3D dành cho TV 3D thụ đông (Passive)

    Ghi Nhận ý kiến của bạn
     
  6. kn_nguyen

    kn_nguyen New Member

    Tham gia ngày:
    15/6/09
    Bài viết:
    43
    Đã được cảm ơn:
    1
    Ðề: Phim 3D dành cho TV 3D thụ đông (Passive)

    có bản side by side kg bạn....mính xài điện thoại chỉ xem dc sbs thôi...tiếc quá....
     
  7. laumam

    laumam Well-Known Member

    Tham gia ngày:
    22/2/09
    Bài viết:
    1,644
    Đã được cảm ơn:
    2,176
    Ðề: Phim 3D dành cho TV 3D thụ đông (Passive)

    KUNG_FU_PANDA_2_3D_ 1080P_TRUE HD 7.1_OU_for TV3D Passive_Thuyết Minh


    [​IMG]

    Mã:
    General
    Unique ID                                : 179754079934272611709784919296499954293 (0x873B60636D098504BE79B861350EB275)
    Complete name                            : D:\PHIM\kungfu 2\KUNG_FU_PANDA_2_3D_ 1080P_TRUE HD 7.1_for TV3D Passive_ThuyetMinh.mkv
    Format                                   : Matroska
    Format version                           : Version 2
    File size                                : 11.6 GiB
    Duration                                 : 1h 30mn
    Overall bit rate mode                    : Variable
    Overall bit rate                         : 18.3 Mbps
    Movie name                               : LTDuc_3DRip
    Encoded date                             : UTC 2011-12-11 05:45:19
    Writing application                      : mkvmerge v5.0.1 ('Es ist Sommer') built on Oct  9 2011 11:55:43
    Writing library                          : libebml v1.2.2 + libmatroska v1.3.0
    
    Video
    ID                                       : 1
    Format                                   : AVC
    Format/Info                              : Advanced Video Codec
    Format profile                           : [email protected]
    Format settings, CABAC                   : Yes
    Format settings, ReFrames                : 2 frames
    Muxing mode                              : Header stripping
    Codec ID                                 : V_MPEG4/ISO/AVC
    Duration                                 : 1h 30mn
    Width                                    : 1 920 pixels
    Height                                   : 1 080 pixels
    Display aspect ratio                     : 16:9
    Frame rate                               : 23.976 fps
    Color space                              : YUV
    Chroma subsampling                       : 4:2:0
    Bit depth                                : 8 bits
    Scan type                                : Progressive
    Writing library                          : x264 core
    Color primaries                          : BT.709-5, BT.1361, IEC 61966-2-4, SMPTE RP177
    Transfer characteristics                 : BT.709-5, BT.1361
    Matrix coefficients                      : BT.709-5, BT.1361, IEC 61966-2-4 709, SMPTE RP177
    
    Audio #1
    ID                                       : 2
    Format                                   : TrueHD
    Codec ID                                 : A_TRUEHD
    Duration                                 : 1h 30mn
    Bit rate mode                            : Variable
    Maximum bit rate                         : 5 703 Kbps
    Channel(s)                               : 8 channels
    Channel positions                        : Front: L C R, Side: L R, Back: L R, LFE
    Sampling rate                            : 48.0 KHz
    Compression mode                         : Lossless
    Language                                 : English
    
    Audio #2
    ID                                       : 3
    Format                                   : AC-3
    Format/Info                              : Audio Coding 3
    Mode extension                           : CM (complete main)
    Muxing mode                              : Header stripping
    Codec ID                                 : A_AC3
    Duration                                 : 1h 30mn
    Bit rate mode                            : Constant
    Bit rate                                 : 640 Kbps
    Channel(s)                               : 6 channels
    Channel positions                        : Front: L C R, Side: L R, LFE
    Sampling rate                            : 48.0 KHz
    Bit depth                                : 16 bits
    Compression mode                         : Lossy
    Stream size                              : 414 MiB (3%)
    Language                                 : Vietnamese
    
    Menu
    00:00:00.000                             : en:(01)00:00:00:000
    00:03:53.274                             : en:(02)00:03:53:274
    00:10:34.342                             : en:(03)00:10:34:342
    00:16:08.425                             : en:(04)00:16:08:425
    00:21:14.731                             : en:(05)00:21:14:731
    00:29:55.627                             : en:(06)00:29:55:627
    00:36:52.877                             : en:(07)00:36:52:877
    00:41:13.179                             : en:(08)00:41:13:179
    00:49:43.814                             : en:(09)00:49:43:814
    00:54:05.825                             : en:(10)00:54:05:825
    00:58:53.780                             : en:(11)00:58:53:780
    01:05:08.195                             : en:(12)01:05:08:195
    01:11:42.798                             : en:(13)01:11:42:798
    01:15:30.901                             : en:(14)01:15:30:901
    01:21:14.786                             : en:(15)01:21:14:786
    01:30:22.625                             : en:(16)01:30:22:625

    Nhấn nút Cảm ơn (dưới chân bài) để thấy link!
     
    Chỉnh sửa cuối: 12/12/11
    fsvnhd cảm ơn bài này.
  8. haipvg

    haipvg Well-Known Member

    Tham gia ngày:
    1/11/08
    Bài viết:
    91
    Đã được cảm ơn:
    1,022
    Ðề: Phim 3D dành cho TV 3D thụ đông (Passive)

    thank bác chủ top 1 lần nữa.
    Mình cũng phát hiện bản phim Kungfu panda 2 này lệch âm thanh thuyết minh nên mình đã sửa lại cho khớp và up lên ở bài 76 nhé.


    Bản SBS thì trong diễn đàn có cả loạt đó bác. Ở đây là dành riêng cho OU thôi.
     
    Chỉnh sửa cuối: 20/12/11
  9. xuanphong1205

    xuanphong1205 Member

    Tham gia ngày:
    4/12/09
    Bài viết:
    62
    Đã được cảm ơn:
    1
    Ðề: Phim 3D dành cho TV 3D thụ đông (Passive)

    bản kungfu panda 11g6 ou này có khác gì bản 9g2 sbs bên topic kia ko bác
    bản 9g2 sbs em xem trên tv samsung chủ động thấy bị bóng quá
     
  10. laumam

    laumam Well-Known Member

    Tham gia ngày:
    22/2/09
    Bài viết:
    1,644
    Đã được cảm ơn:
    2,176
    Ðề: Phim 3D dành cho TV 3D thụ đông (Passive)

    Khác nhiều : định dạng Over Under , Audio TrueHD 7.1
     
  11. xeom

    xeom Active Member

    Tham gia ngày:
    27/11/09
    Bài viết:
    177
    Đã được cảm ơn:
    37
    Ðề: Phim 3D dành cho TV 3D thụ đông (Passive)

    Thanks chủ thớt! Đang tiếp tục chờ phim mới của chủ thớt!!!
     
  12. laumam

    laumam Well-Known Member

    Tham gia ngày:
    22/2/09
    Bài viết:
    1,644
    Đã được cảm ơn:
    2,176
    Ðề: Phim 3D dành cho TV 3D thụ đông (Passive)

    Fright Night 3D 2011 1080 OU for TV3D Passive_Thuyết Minh
    [​IMG]
    [​IMG]
    [​IMG]
    [​IMG]
    [​IMG]

    Mã:
    General
    Unique ID                                : 252549981237428003098733029408849178632 (0xBDFF5B6D00075781A08110F9F886B008)
    Complete name                            : D:\PHIM\Fright Night True 3D\Fright Night 3D 2011 1080 OU for TV3D Passive_thuyetminh.mkv
    Format                                   : Matroska
    Format version                           : Version 2
    File size                                : 9.36 GiB
    Duration                                 : 1h 45mn
    Overall bit rate                         : 12.6 Mbps
    Movie name                               : LTDuc_3DRip
    Encoded date                             : UTC 2011-12-11 00:03:50
    Writing application                      : mkvmerge v5.0.1 ('Es ist Sommer') built on Oct  9 2011 11:55:43
    Writing library                          : libebml v1.2.2 + libmatroska v1.3.0
    
    Video
    ID                                       : 1
    Format                                   : AVC
    Format/Info                              : Advanced Video Codec
    Format profile                           : [email protected]
    Format settings, CABAC                   : Yes
    Format settings, ReFrames                : 2 frames
    Muxing mode                              : Header stripping
    Codec ID                                 : V_MPEG4/ISO/AVC
    Duration                                 : 1h 45mn
    Bit rate                                 : 11.7 Mbps
    Width                                    : 1 920 pixels
    Height                                   : 1 080 pixels
    Display aspect ratio                     : 16:9
    Frame rate                               : 23.976 fps
    Color space                              : YUV
    Chroma subsampling                       : 4:2:0
    Bit depth                                : 8 bits
    Scan type                                : Progressive
    Bits/(Pixel*Frame)                       : 0.236
    Stream size                              : 8.70 GiB (93%)
    Writing library                          : x264 core
    Color primaries                          : BT.709-5, BT.1361, IEC 61966-2-4, SMPTE RP177
    Transfer characteristics                 : BT.709-5, BT.1361
    Matrix coefficients                      : BT.709-5, BT.1361, IEC 61966-2-4 709, SMPTE RP177
    
    Audio #1
    ID                                       : 2
    Format                                   : AC-3
    Format/Info                              : Audio Coding 3
    Mode extension                           : CM (complete main)
    Muxing mode                              : Header stripping
    Codec ID                                 : A_AC3
    Duration                                 : 1h 45mn
    Bit rate mode                            : Constant
    Bit rate                                 : 448 Kbps
    Channel(s)                               : 6 channels
    Channel positions                        : Front: L C R, Side: L R, LFE
    Sampling rate                            : 48.0 KHz
    Bit depth                                : 16 bits
    Compression mode                         : Lossy
    Stream size                              : 340 MiB (4%)
    Language                                 : English
    
    Audio #2
    ID                                       : 3
    Format                                   : AC-3
    Format/Info                              : Audio Coding 3
    Mode extension                           : CM (complete main)
    Muxing mode                              : Header stripping
    Codec ID                                 : A_AC3
    Duration                                 : 1h 45mn
    Bit rate mode                            : Constant
    Bit rate                                 : 192 Kbps
    Channel(s)                               : 2 channels
    Channel positions                        : Front: L R
    Sampling rate                            : 48.0 KHz
    Bit depth                                : 16 bits
    Compression mode                         : Lossy
    Stream size                              : 146 MiB (2%)
    Language                                 : Vietnamese
    
    Menu
    00:00:00.000                             : en:(01)00:00:00:000
    00:07:59.000                             : en:(02)00:07:59:000
    00:14:59.000                             : en:(03)00:14:59:000
    00:23:59.000                             : en:(04)00:23:59:000
    00:30:00.000                             : en:(05)00:30:00:000
    00:39:00.000                             : en:(06)00:39:00:000
    00:44:59.000                             : en:(07)00:44:59:000
    00:53:59.000                             : en:(08)00:53:59:000
    01:00:00.000                             : en:(09)01:00:00:000
    01:09:59.000                             : en:(10)01:09:59:000
    01:16:00.000                             : en:(11)01:16:00:000
    01:25:00.000                             : en:(12)01:25:00:000
    01:30:00.000                             : en:(13)01:30:00:000
    01:39:00.000                             : en:(14)01:39:00:000
    01:45:58.226                             : en:(15)01:45:58:226
    Nhấn nút Cảm ơn (dưới chân bài) để thấy link!
     
    Chỉnh sửa cuối: 12/12/11
    fsvnhd cảm ơn bài này.
  13. laumam

    laumam Well-Known Member

    Tham gia ngày:
    22/2/09
    Bài viết:
    1,644
    Đã được cảm ơn:
    2,176
    Ðề: Phim 3D dành cho TV 3D thụ đông (Passive)

    Ngày mai sẽ up thêm 2 phim Tekken Blood và Sex and Zen 2011 3D với phụ đề Chuẩn
     
  14. laumam

    laumam Well-Known Member

    Tham gia ngày:
    22/2/09
    Bài viết:
    1,644
    Đã được cảm ơn:
    2,176
    Ðề: Phim 3D dành cho TV 3D thụ đông (Passive)

    Những ai đã down về và xem rồi thì post ý kiến đóng góp nhé , để rút kinh nghiệm cho những phim mới sau này
     
  15. moonspirit

    moonspirit Member

    Tham gia ngày:
    9/2/10
    Bài viết:
    71
    Đã được cảm ơn:
    6
    Ðề: Phim 3D dành cho TV 3D thụ đông (Passive)

    TV 3D chủ động vẫn xem dạng OU đc chứ nhỉ :D
     
  16. laumam

    laumam Well-Known Member

    Tham gia ngày:
    22/2/09
    Bài viết:
    1,644
    Đã được cảm ơn:
    2,176
    Ðề: Phim 3D dành cho TV 3D thụ đông (Passive)

    Xem được ko có vấn đề gì cả
     
  17. baoquoc_kg

    baoquoc_kg Member

    Tham gia ngày:
    21/1/10
    Bài viết:
    138
    Đã được cảm ơn:
    4
    Ðề: Phim 3D dành cho TV 3D thụ đông (Passive)

    chờ down sex and zen 3d của bác, thank
     
  18. laumam

    laumam Well-Known Member

    Tham gia ngày:
    22/2/09
    Bài viết:
    1,644
    Đã được cảm ơn:
    2,176
    Ðề: Phim 3D dành cho TV 3D thụ đông (Passive)

    Tekken Blood Vengeance 2011 1080 English DTS OU_for TV3D-Phụ đề Chuẩn


    [​IMG]
    [​IMG]
    [​IMG]
    [​IMG]
    [​IMG]

    Mã:
    General
    Unique ID                                : 222193263947262193843955279138063015180 (0xA728DDB54D9CE6BF9AB193A860825D0C)
    Complete name                            : C:\mkv\TEKKEN\Tekken Blood Vengeance 2011 1080 English DTS OU_for TV3D.mkv
    Format                                   : Matroska
    Format version                           : Version 2
    File size                                : 10.7 GiB
    Duration                                 : 1h 32mn
    Overall bit rate mode                    : Variable
    Overall bit rate                         : 16.6 Mbps
    Movie name                               : LTDuc_3DRip
    Encoded date                             : UTC 2011-12-12 12:55:34
    Writing library                          : libebml v0.7.8 + libmatroska v0.8.1
    
    Video
    ID                                       : 1
    Format                                   : AVC
    Format/Info                              : Advanced Video Codec
    Format profile                           : [email protected]
    Format settings, CABAC                   : Yes
    Format settings, ReFrames                : 2 frames
    Codec ID                                 : V_MPEG4/ISO/AVC
    Duration                                 : 1h 32mn
    Bit rate                                 : 15.5 Mbps
    Width                                    : 1 920 pixels
    Height                                   : 1 080 pixels
    Display aspect ratio                     : 16:9
    Frame rate                               : 23.976 fps
    Color space                              : YUV
    Chroma subsampling                       : 4:2:0
    Bit depth                                : 8 bits
    Scan type                                : Progressive
    Bits/(Pixel*Frame)                       : 0.311
    Stream size                              : 9.97 GiB (93%)
    Writing library                          : x264 core
    Color primaries                          : BT.709-5, BT.1361, IEC 61966-2-4, SMPTE RP177
    Transfer characteristics                 : BT.709-5, BT.1361
    Matrix coefficients                      : BT.709-5, BT.1361, IEC 61966-2-4 709, SMPTE RP177
    
    Audio
    ID                                       : 2
    Format                                   : DTS
    Format/Info                              : Digital Theater Systems
    Format profile                           : MA / Core
    Codec ID                                 : A_DTS
    Duration                                 : 1h 32mn
    Bit rate mode                            : Variable
    Bit rate                                 : 806 Kbps / 755 Kbps
    Channel(s)                               : 6 channels
    Channel positions                        : Front: L C R, Side: L R, LFE
    Sampling rate                            : 48.0 KHz
    Bit depth                                : 16 bits
    Compression mode                         : Lossless / Lossy
    Language                                 : English
    
    Menu
    00:00:00.000                             : en:(01)00:00:00:000
    00:06:49.409                             : en:(02)00:06:49:409
    00:11:10.211                             : en:(03)00:11:10:211
    00:14:33.622                             : en:(04)00:14:33:622
    00:18:59.721                             : en:(05)00:18:59:721
    00:24:56.870                             : en:(06)00:24:56:870
    00:30:58.273                             : en:(07)00:30:58:273
    00:39:34.914                             : en:(08)00:39:34:914
    00:42:30.381                             : en:(09)00:42:30:381
    00:47:24.466                             : en:(10)00:47:24:466
    00:50:18.181                             : en:(11)00:50:18:181
    00:53:20.614                             : en:(12)00:53:20:614
    00:56:37.852                             : en:(13)00:56:37:852
    01:03:23.758                             : en:(14)01:03:23:758
    01:08:49.125                             : en:(15)01:08:49:125
    01:16:02.015                             : en:(16)01:16:02:015
    01:24:44.704                             : en:(17)01:24:44:704
    01:28:39.314                             : en:(18)01:28:39:314
    Link down và Phụ đề chung trong folder

    Nhấn nút Cảm ơn (dưới chân bài) để thấy link!
     
    fsvnhd and Luxo like this.
  19. LanhHuyet186

    LanhHuyet186 Member

    Tham gia ngày:
    8/11/10
    Bài viết:
    20
    Đã được cảm ơn:
    2
    Ðề: Phim 3D dành cho TV 3D thụ đông (Passive)

    Vẫn đang chờ Sex and Zen của bác. Nhưng mà cho em hỏi là bản của bác là bản Full 129 phút hay là bản cut 113 phút vậy? Hi vọng là bản full! hí hí!
     
  20. crazyboy1304

    crazyboy1304 Moderator

    Tham gia ngày:
    30/7/08
    Bài viết:
    468
    Đã được cảm ơn:
    1,127
    Ðề: Phim 3D dành cho TV 3D thụ đông (Passive)

    ủng hộ bạn laumam nhé
     

Chia sẻ trang này