[NF] Ocean Wonderland 3D 2010 DL 1080p z-man - SBS

Thảo luận trong '3D' bắt đầu bởi laumam, 12/12/10.

  1. laumam

    laumam Well-Known Member

    Tham gia ngày:
    22/2/09
    Bài viết:
    1,644
    Đã được cảm ơn:
    2,190
    [​IMG]
    [​IMG]
    Mã:
    Mediainfo SBS
    General
    
    
    	

    Complete name : Ocean.Wonderland.3D.3DBD.2010.DL.1080p.X264.half.S BS.z-man.mkv

    Format : Matroska File size : 5.42 GiB Duration : 40mn 39s Overall bit rate : 19.1 Mbps Encoded date : UTC 2010-12-11 12:52:55 Writing application : mkvmerge v4.4.0 ('Die Wiederkehr') gebaut am Oct 31 2010 21:52:48 Writing library : libebml v1.0.0 + libmatroska v1.0.0 Video ID : 1 Format : AVC Format/Info : Advanced Video Codec Format profile : [email protected] Format settings, CABAC : Yes Format settings, ReFrames : 4 frames Format settings, GOP : M=4, N=32 Codec ID : V_MPEG4/ISO/AVC Duration : 40mn 39s Bit rate : 16.4 Mbps Width : 1 920 pixels Height : 1 080 pixels Display aspect ratio : 16:9 Frame rate : 23.976 fps Color space : YUV Chroma subsampling : 4:2:0 Bit depth : 8 bits Scan type : Progressive Bits/(Pixel*Frame) : 0.331 Stream size : 4.67 GiB (86%) Title : made by z-man Writing library : x264 core 110 r1820 fdcf2ae Encoding settings : cabac=1 / ref=4 / deblock=1:-1:-1 / analyse=0x3:0x113 / me=umh / subme=7 / psy=1 / psy_rd=1.00:0.15 / mixed_ref=1 / me_range=16 / chroma_me=1 / trellis=1 / 8x8dct=1 / cqm=0 / deadzone=21,11 / fast_pskip=1 / chroma_qp_offset=-3 / threads=18 / sliced_threads=0 / nr=0 / decimate=1 / interlaced=0 / constrained_intra=0 / bframes=3 / b_pyramid=2 / b_adapt=1 / b_bias=0 / direct=3 / weightb=1 / open_gop=0 / weightp=2 / keyint=250 / keyint_min=23 / scenecut=40 / intra_refresh=0 / rc_lookahead=40 / rc=crf / mbtree=1 / crf=18.0 / qcomp=0.60 / qpmin=0 / qpmax=51 / qpstep=4 / ip_ratio=1.40 / aq=1:1.00 Language : English Audio #1 ID : 2 Format : DTS Format/Info : Digital Theater Systems Codec ID : A_DTS Duration : 40mn 39s Bit rate mode : Constant Bit rate : 1 510 Kbps Channel(s) : 6 channels Channel positions : Front: L C R, Side: L R, LFE Sampling rate : 48.0 KHz Bit depth : 24 bits Compression mode : Lossy Stream size : 439 MiB (8%) Language : English Audio #2 ID : 3 Format : DTS Format/Info : Digital Theater Systems Codec ID : A_DTS Duration : 40mn 39s Bit rate mode : Constant Bit rate : 755 Kbps Channel(s) : 6 channels Channel positions : Front: L C R, Side: L R, LFE Sampling rate : 48.0 KHz Bit depth : 24 bits Compression mode : Lossy Stream size : 219 MiB (4%)
    netfolder
    Mã:
    http://netfolder.in/folder.php?folder_id=m9IWXue 
     

Chia sẻ trang này