My Sassy Girl 2001 Director's Cut 1080p BluRay REMUX AVC DTS-HD MA 5.1-NOAH ~ Cô Nàng Ngổ Ngáo

Thảo luận trong 'Bluray Remux' bắt đầu bởi tremocoivo, 25/8/20.

  1. tremocoivo

    tremocoivo Uploader

    Tham gia ngày:
    25/2/10
    Bài viết:
    3,947
    Đã được cảm ơn:
    106,406
    Giới tính:
    Nam

    Cô Nàng Ngổ Ngáo (2001)
    My Sassy Girl 2001 Director's Cut 1080p BluRay REMUX AVC DTS-HD MA 5.1-NOAH {Sub Việt Mux Sẵn}

    [​IMG]
    https://www.imdb.com/title/tt0293715

    Cô nàng ngổ ngáo là một bộ phim hài lãng mạn Hàn Quốc sản xuất vào năm 2001, đạo diễn bởi Kwak Jae-yong. Trong bộ phim, nhân vật nam chính đã có cuộc gặp gỡ với một cô gái say rượu trên tàu điện và điều này đã làm thay đổi cuộc đời anh. Nội dung phim dựa trên một câu chuyện có thật được kể lại qua một chuỗi những lá thư tình viết bởi Kim Ho-sik, người khởi đầu đã gửi chúng trên Internet và sau đó chuyển thể chúng thành tiểu thuyết.


    Bộ phim đã thu được thành công lớn tại Hàn Quốc. Phim đã được phát hành trên toàn bộ khu vực Đông Á, và trở thành một quả bom tấn tại nhiều quốc gia, bao gồm Nhật Bản, Trung Quốc, Đài Loan, Philippines, Hồng Kông, Singapore, Việt Nam và Indonesia.
    Mã:
    General
    Complete name               : My.Sassy.Girl.2001.Directors.Cut.1080p.BluRay.REMUX.AVC.DTS-HD.MA.5.1-NOAH.mkv
    Format                      : Matroska
    Format version              : Version 4
    File size                   : 36.9 GiB
    Duration                    : 2 h 17 min
    Overall bit rate mode       : Variable
    Overall bit rate            : 38.5 Mb/s
    
    
    Encoded date                : UTC 2020-08-24 15:14:02
    Writing application         : mkvmerge v45.0.0 ('Heaven in Pennies') 64-bit
    Writing library             : libebml v1.3.10 + libmatroska v1.5.2
    Video
    ID                          : 1
    Format                      : AVC
    Format/Info                 : Advanced Video Codec
    Format profile              : [email protected]
    Format settings             : CABAC / 4 Ref Frames
    Format settings, CABAC      : Yes
    Format settings, Reference  : 4 frames
    Format settings, GOP        : M=3, N=24
    Codec ID                    : V_MPEG4/ISO/AVC
    Duration                    : 2 h 17 min
    Bit rate mode               : Variable
    Bit rate                    : 35.0 Mb/s
    Maximum bit rate            : 40.0 Mb/s
    Width                       : 1 920 pixels
    Height                      : 1 080 pixels
    Display aspect ratio        : 16:9
    Frame rate mode             : Constant
    Frame rate                  : 23.976 (24000/1001) FPS
    Standard                    : NTSC
    Color space                 : YUV
    Chroma subsampling          : 4:2:0
    Bit depth                   : 8 bits
    Scan type                   : Progressive
    Bits/(Pixel*Frame)          : 0.704
    Stream size                 : 33.5 GiB (91%)
    Default                     : Yes
    Forced                      : No
    Color range                 : Limited
    Color primaries             : BT.709
    Transfer characteristics    : BT.709
    Matrix coefficients         : BT.709
    Audio
    ID                          : 2
    Format                      : DTS XLL
    Format/Info                 : Digital Theater Systems
    Commercial name             : DTS-HD Master Audio
    Codec ID                    : A_DTS
    Duration                    : 2 h 17 min
    Bit rate mode               : Variable
    Bit rate                    : 3 495 kb/s
    Channel(s)                  : 6 channels
    Channel layout              : C L R Ls Rs LFE
    Sampling rate               : 48.0 kHz
    Frame rate                  : 93.750 FPS (512 SPF)
    Bit depth                   : 24 bits
    Compression mode            : Lossless
    Stream size                 : 3.35 GiB (9%)
    Title                       : Main Audio
    Language                    : Korean
    Default                     : Yes
    Forced                      : No
    Text #1
    ID                          : 3
    Format                      : PGS
    Muxing mode                 : zlib
    Codec ID                    : S_HDMV/PGS
    Codec ID/Info               : Picture based subtitle format used on BDs/HD-DVDs
    Duration                    : 2 h 13 min
    Bit rate                    : 23.4 kb/s
    Count of elements           : 2587
    Stream size                 : 22.3 MiB (0%)
    Title                       : Main Subtitles Korean
    Language                    : Korean
    Default                     : No
    Forced                      : No
    Text #2
    ID                          : 4
    Format                      : PGS
    Muxing mode                 : zlib
    Codec ID                    : S_HDMV/PGS
    Codec ID/Info               : Picture based subtitle format used on BDs/HD-DVDs
    Duration                    : 2 h 14 min
    Bit rate                    : 36.8 kb/s
    Count of elements           : 2673
    Stream size                 : 35.3 MiB (0%)
    Title                       : English
    Language                    : English
    Default                     : No
    Forced                      : No
    Text #3
    ID                          : 5
    Format                      : UTF-8
    Codec ID                    : S_TEXT/UTF8
    Codec ID/Info               : UTF-8 Plain Text
    Duration                    : 2 h 14 min
    Bit rate                    : 44 b/s
    Count of elements           : 1286
    Stream size                 : 43.7 KiB (0%)
    Language                    : Vietnamese
    Default                     : Yes
    Forced                      : No
    Menu
    00:00:00.000                : :Chapter 01
    00:02:34.404                : :Chapter 02
    00:04:08.331                : :Chapter 03
    00:04:58.381                : :Chapter 04
    00:09:41.247                : :Chapter 05
    00:13:57.253                : :Chapter 06
    00:18:31.110                : :Chapter 07
    00:20:57.173                : :Chapter 08
    00:24:11.033                : :Chapter 09
    00:28:14.943                : :Chapter 10
    00:32:59.895                : :Chapter 11
    00:36:36.277                : :Chapter 12
    00:39:34.789                : :Chapter 13
    00:43:44.789                : :Chapter 14
    00:46:17.108                : :Chapter 15
    00:49:05.609                : :Chapter 16
    00:54:31.602                : :Chapter 17
    00:57:16.516                : :Chapter 18
    01:06:23.605                : :Chapter 19
    01:10:36.482                : :Chapter 20
    01:12:55.413                : :Chapter 21
    01:16:30.836                : :Chapter 22
    01:20:29.908                : :Chapter 23
    01:22:28.360                : :Chapter 24
    01:26:30.268                : :Chapter 25
    01:28:48.657                : :Chapter 26
    01:36:30.368                : :Chapter 27
    01:41:14.318                : :Chapter 28
    01:49:58.342                : :Chapter 29
    01:54:05.297                : :Chapter 30
    01:58:08.707                : :Chapter 31
    02:00:15.208                : :Chapter 32
    02:04:46.270                : :Chapter 33
    02:09:29.136                : :Chapter 34
    
    SCREENSHOT
    [​IMG]
    DOWNLOAD
     
    Chỉnh sửa cuối: 11/12/21
    rockerman, quanganh007, 6066 and 83 others like this.
  2. Uchiha_Madara

    Uchiha_Madara Nghỉ hưu

    Tham gia ngày:
    30/10/12
    Bài viết:
    1,140
    Đã được cảm ơn:
    4,283
    Bạn không được phép để chữ ký quảng cáo dẫn sang trang khác bạn nhé.
     
    tremocoivo cảm ơn bài này.
  3. pbactv

    pbactv New Member

    Tham gia ngày:
    29/5/10
    Bài viết:
    4
    Đã được cảm ơn:
    1
    Nhờ Ad upload lại ạ
     
  4. tremocoivo

    tremocoivo Uploader

    Tham gia ngày:
    25/2/10
    Bài viết:
    3,947
    Đã được cảm ơn:
    106,406
    Giới tính:
    Nam
    REUP link Die
     
    khoanv and ifeelyou1583 like this.
  5. ifeelyou1583

    ifeelyou1583 New Member

    Tham gia ngày:
    29/8/15
    Bài viết:
    26
    Đã được cảm ơn:
    13
    Link die rồi ạ, phiền bạn up lại giúp mình với. Cảm ơn nhiều!
     
    tremocoivo cảm ơn bài này.
  6. tremocoivo

    tremocoivo Uploader

    Tham gia ngày:
    25/2/10
    Bài viết:
    3,947
    Đã được cảm ơn:
    106,406
    Giới tính:
    Nam
    Đã REUP nhé.
     
    khoanv cảm ơn bài này.
  7. mitommoc

    mitommoc Member

    Tham gia ngày:
    4/1/10
    Bài viết:
    57
    Đã được cảm ơn:
    48
    Giới tính:
    Nam
    Nghề nghiệp:
    Tự do
    Bác @tremocoivo có bản Director's Cut nào của phim này nhẹ hơn không ạ? 36GB e download cực quá. :(
     
  8. ductin123

    ductin123 Active Member

    Tham gia ngày:
    5/3/19
    Bài viết:
    146
    Đã được cảm ơn:
    49
    Giới tính:
    Nam
    xin reup a
     
  9. tremocoivo

    tremocoivo Uploader

    Tham gia ngày:
    25/2/10
    Bài viết:
    3,947
    Đã được cảm ơn:
    106,406
    Giới tính:
    Nam
    Mình có bản x265 17GB. Ok ko nè để mình up.
     
  10. mitommoc

    mitommoc Member

    Tham gia ngày:
    4/1/10
    Bài viết:
    57
    Đã được cảm ơn:
    48
    Giới tính:
    Nam
    Nghề nghiệp:
    Tự do
    Bản của nhóm Betai à bác?
     
  11. tremocoivo

    tremocoivo Uploader

    Tham gia ngày:
    25/2/10
    Bài viết:
    3,947
    Đã được cảm ơn:
    106,406
    Giới tính:
    Nam
    Đúng rồi bác.
     

Chia sẻ trang này