[Fshare] [MV] BLACKPINK - Pink Venom [2160p.Master.ProRes.LPCM]

Thảo luận trong 'Asia' bắt đầu bởi manhpotato, 13/3/23.

Tags
  1. manhpotato

    manhpotato Well-Known Member

    Tham gia ngày:
    11/2/16
    Bài viết:
    158
    Đã được cảm ơn:
    2,657
    [​IMG]
    [​IMG]
    [​IMG]

    Format : MPEG-4
    Format profile : QuickTime
    Codec ID : qt 2005.03 (qt )

    File size : 22.7 GiB

    Duration : 3 min 13 s
    Overall bit rate mode : Variable
    Overall bit rate : 1 010 Mb/s
    Writing application : Hybrik 1.229.21-702
    Video
    ID : 1
    Format : ProRes
    Format version : Version 1
    Format profile : 4444
    Codec ID : ap4h
    Duration : 3 min 13 s
    Bit rate mode : Variable
    Bit rate : 1 008 Mb/s
    Width : 3 840 pixels
    Height : 2 160 pixels
    Display aspect ratio : 16:9
    Frame rate mode : Constant
    Frame rate : 24.000 FPS
    Color space : YUVA
    Chroma subsampling : 4:4:4
    Scan type : Progressive
    Bits/(Pixel*Frame) : 5.065
    Stream size : 22.7 GiB (100%)

    Audio
    Format : PCM
    Duration : 3 min 13 s
    Bit rate mode : Constant
    Bit rate : 1 536 kb/s
    Channel(s) : 2 channels
    Channel layout : L R
    Sampling rate : 48.0 kHz
    Bit depth : 16 bits
    Stream size : 35.4 MiB (0%)


    Nhấn nút Cảm ơn (dưới chân bài) để thấy link!
     
  2. le quoc cuong

    le quoc cuong Active Member

    Tham gia ngày:
    31/5/13
    Bài viết:
    390
    Đã được cảm ơn:
    139
    có bản 1080i ko bạn, bản này nặng quá ko chạy nổi ^^
     
  3. tranhaihau

    tranhaihau Well-Known Member

    Tham gia ngày:
    29/12/09
    Bài viết:
    92
    Đã được cảm ơn:
    543
    up lai link khác đc ko bạn ơi
     
  4. giomoi

    giomoi Member

    Tham gia ngày:
    21/4/09
    Bài viết:
    44
    Đã được cảm ơn:
    10
    Link die :(:(:(
     

Chia sẻ trang này