[Fshare] Minh Hằng - Một Vòng Trái Đất [DVDISO]

Thảo luận trong 'mHD, SD Video Clips' bắt đầu bởi vinhtq115, 20/1/21.

  1. tkltmt

    tkltmt Well-Known Member

    Tham gia ngày:
    8/6/09
    Bài viết:
    10,696
    Đã được cảm ơn:
    35,145
    Bác để tất cả chung trong list làm mình hoa cả mắt, tưởng hàng master ko đang định coi để xin, ai dè vob lẫn vào :D
     
  2. tkltmt

    tkltmt Well-Known Member

    Tham gia ngày:
    8/6/09
    Bài viết:
    10,696
    Đã được cảm ơn:
    35,145
    Mình cũng thích trao đổi, ko cần tương đương chỉ cần thích là được, kiểu prores với vcd ấy nếu file đó đang cần, chứ bán thì hơi kỳ
     
  3. manhpotato

    manhpotato Well-Known Member

    Tham gia ngày:
    11/2/16
    Bài viết:
    139
    Đã được cảm ơn:
    2,500
    ddd.phuochien and rongcanlc like this.
  4. ddd.phuochien

    ddd.phuochien Well-Known Member

    Tham gia ngày:
    25/7/17
    Bài viết:
    282
    Đã được cảm ơn:
    250
    Giới tính:
    Nam
  5. vinhtq115

    vinhtq115 Well-Known Member

    Tham gia ngày:
    1/4/12
    Bài viết:
    175
    Đã được cảm ơn:
    676
    Giới tính:
    Nam
    Trc em mua hẳn bản prores uncen của MV này từ một ông nc ngoài :D
    Trade thì toàn down trên mạng về nên đâm ra k có hàng hiếm nào để trade

     
    Chỉnh sửa cuối: 24/10/22
  6. tkltmt

    tkltmt Well-Known Member

    Tham gia ngày:
    8/6/09
    Bài viết:
    10,696
    Đã được cảm ơn:
    35,145
    Mắc thế, nhưng chất lượng tương xứng ko bác?
     
  7. vinhtq115

    vinhtq115 Well-Known Member

    Tham gia ngày:
    1/4/12
    Bài viết:
    175
    Đã được cảm ơn:
    676
    Giới tính:
    Nam
    MediaInfo luôn này bác:
    Mã:
    General
    Complete name                            : Enrique Iglesias - Tonight (I'm Fuckin' You) (feat. Ludacris) (Dirty Version) (ProRes 1080p LPCM).mov
    Format                                   : MPEG-4
    Format profile                           : QuickTime
    Codec ID                                 : qt   2005.03 (qt  )
    File size                                : 5.94 GiB
    Duration                                 : 5 min 4 s
    Overall bit rate mode                    : Variable
    Overall bit rate                         : 168 Mb/s
    Encoded date                             : UTC 2017-08-04 11:53:43
    Tagged date                              : UTC 2017-08-04 12:06:59
    Writing library                          : Apple QuickTime
    
    Video
    ID                                       : 1
    Format                                   : ProRes
    Format version                           : Version 0
    Format profile                           : 422 HQ
    Codec ID                                 : apch
    Duration                                 : 5 min 4 s
    Bit rate mode                            : Variable
    Bit rate                                 : 166 Mb/s
    Width                                    : 1 920 pixels
    Height                                   : 1 080 pixels
    Display aspect ratio                     : 16:9
    Frame rate mode                          : Constant
    Frame rate                               : 24.000 FPS
    Color space                              : YUV
    Chroma subsampling                       : 4:2:2
    Scan type                                : Progressive
    Bits/(Pixel*Frame)                       : 3.326
    Stream size                              : 5.86 GiB (99%)
    Writing library                          : arh0
    Language                                 : English
    Encoded date                             : UTC 2017-08-04 11:53:43
    Tagged date                              : UTC 2017-08-04 12:06:59
    Color primaries                          : BT.709
    Transfer characteristics                 : BT.709
    Matrix coefficients                      : BT.709
    
    Audio
    ID                                       : 2
    Format                                   : PCM
    Format settings                          : Little / Signed
    Codec ID                                 : in24
    Duration                                 : 5 min 4 s
    Bit rate mode                            : Constant
    Bit rate                                 : 2 304 kb/s
    Channel(s)                               : 2 channels
    Channel layout                           : L R
    Sampling rate                            : 48.0 kHz
    Bit depth                                : 24 bits
    Stream size                              : 83.5 MiB (1%)
    Language                                 : English
    Encoded date                             : UTC 2017-08-04 11:53:43
    Tagged date                              : UTC 2017-08-04 12:07:01
    
    Bản này màu có vẻ đậm vs tối hơn bản MasterRip từ 2013 với cả YouTube. Nhưng hàng của bitMAX nên chắc ksao.
     
    tkltmt cảm ơn bài này.
  8. tkltmt

    tkltmt Well-Known Member

    Tham gia ngày:
    8/6/09
    Bài viết:
    10,696
    Đã được cảm ơn:
    35,145
    mình thì thích một bài của Chris Brown, có hàng prores nhưng cũng chỉ thấy trên trang trao đổi hix
     
  9. vinhtq115

    vinhtq115 Well-Known Member

    Tham gia ngày:
    1/4/12
    Bài viết:
    175
    Đã được cảm ơn:
    676
    Giới tính:
    Nam
    HD 1080p đó bác.
     
    tkltmt cảm ơn bài này.
  10. boykutehp90

    boykutehp90 Well-Known Member

    Tham gia ngày:
    30/3/10
    Bài viết:
    2,159
    Đã được cảm ơn:
    3,358
    Giới tính:
    Nam
    Nghề nghiệp:
    Tân Cảng 128
    Nơi ở:
    Việt Nam
    ddd.phuochien cảm ơn bài này.
  11. ddd.phuochien

    ddd.phuochien Well-Known Member

    Tham gia ngày:
    25/7/17
    Bài viết:
    282
    Đã được cảm ơn:
    250
    Giới tính:
    Nam
    Dạ mình cảm ơn bạn.
     

Chia sẻ trang này