[Kinh dị | Tâm lý | Lãng mạn] Jess Franco DVDRIP Collection

Thảo luận trong 'mHD, SD' bắt đầu bởi quastex, 19/6/13.

  1. quastex

    quastex New Member

    Tham gia ngày:
    15/6/13
    Bài viết:
    769
    Đã được cảm ơn:
    1,372
    Jess Franco Collection



    [​IMG]


    [​IMG]
    [​IMG]
     
  2. quastex

    quastex New Member

    Tham gia ngày:
    15/6/13
    Bài viết:
    769
    Đã được cảm ơn:
    1,372
    Re: [Kinh dị | Tâm lý | Lãng mạn] Jess Franco Collection

    [Kinh dị] A Virgin Among the LivingDead 1973 DVDRip



    [​IMG]


    [​IMG]

    [​IMG]
    [​IMG]
    Mã:
    General
    Complete name                            : Jess Franco Collection\AVirginAmongtheLivingDead[1973].avi
    Format                                   : AVI
    Format/Info                              : Audio Video Interleave
    File size                                : 901 MiB
    Duration                                 : 1h 18mn
    Overall bit rate                         : 1 607 Kbps
    Writing application                      : VirtualDubMod 1.5.4.1 (build 2178/release)
    Writing library                          : VirtualDubMod build 2178/release
    
    Video
    ID                                       : 0
    Format                                   : MPEG-4 Visual
    Format profile                           : Advanced Simple@L5
    Format settings, BVOP                    : 1
    Format settings, QPel                    : No
    Format settings, GMC                     : No warppoints
    Format settings, Matrix                  : Custom
    Codec ID                                 : XVID
    Codec ID/Hint                            : XviD
    Duration                                 : 1h 18mn
    Bit rate                                 : 1 375 Kbps
    Width                                    : 704 pixels
    Height                                   : 400 pixels
    Display aspect ratio                     : 16:9
    Frame rate                               : 29.970 fps
    Color space                              : YUV
    Chroma subsampling                       : 4:2:0
    Bit depth                                : 8 bits
    Scan type                                : Progressive
    Compression mode                         : Lossy
    Bits/(Pixel*Frame)                       : 0.163
    Stream size                              : 771 MiB (86%)
    Writing library                          : XviD 63
    
    Audio
    ID                                       : 1
    Format                                   : AC-3
    Format/Info                              : Audio Coding 3
    Mode extension                           : CM (complete main)
    Format settings, Endianness              : Big
    Codec ID                                 : 2000
    Duration                                 : 1h 18mn
    Bit rate mode                            : Constant
    Bit rate                                 : 224 Kbps
    Channel(s)                               : 2 channels
    Channel positions                        : Front: L R
    Sampling rate                            : 48.0 KHz
    Bit depth                                : 16 bits
    Compression mode                         : Lossy
    Stream size                              : 126 MiB (14%)
    Alignment                                : Split accross interleaves
    Interleave, duration                     : 96 ms (2.88 video frames)
    Interleave, preload duration             : 96 ms
    Language                                 : English
    
    
    [​IMG]
    [​IMG]


    [​IMG]
    [video=youtube;Mcs5srPmBvw]http://www.youtube.com/watch?v=Mcs5srPmBvw[/video]

    [​IMG]


    [​IMG]

    [​IMG]




    [​IMG]
     
    Music1978, toan60, haiphan68 and 47 others like this.
  3. vqt01

    vqt01 Active Member

    Tham gia ngày:
    22/2/10
    Bài viết:
    581
    Đã được cảm ơn:
    35
    Ðề: [Kinh dị | Tâm lý | Lãng mạn] Jess Franco Collection

    Cám ơn bạn, cũng nên đa dạng hóa các thể loại, còn xem hay không tùy thuộc gu mỗi người mà!
     
    didoHD and phammanhhung65 like this.
  4. mrhoimr

    mrhoimr Active Member

    Tham gia ngày:
    10/9/10
    Bài viết:
    280
    Đã được cảm ơn:
    38
    Ðề: [Kinh dị | Tâm lý | Lãng mạn] Jess Franco Collection

    Cảm ơn chủ thớt. Mấy cái thể lọai kinh dị xưa thừờng máu me bê bết. Nhưng độ rùng rợn và kỹ xảo thì không được như mấy version sau này. Nhưng mấy phim này thường xưa nay cũng khó tìm trên kệ DVD.
     
    phammanhhung65 cảm ơn bài này.
  5. quastex

    quastex New Member

    Tham gia ngày:
    15/6/13
    Bài viết:
    769
    Đã được cảm ơn:
    1,372
    Re: Ðề: [Kinh dị | Tâm lý | Lãng mạn] Jess Franco Collection

    Nói về kỹ xảo thì càng ngày càng tân tiến, hình ảnh ngày càng đẹp nhưng mỗi tác phẩm có nét riêng của nó, thanks.
     
  6. nghung4f

    nghung4f Active Member

    Tham gia ngày:
    20/9/11
    Bài viết:
    208
    Đã được cảm ơn:
    52
    Nghề nghiệp:
    THiết kế
    Nơi ở:
    Vietnam
    Re: [Kinh dị | Tâm lý | Lãng mạn] Jess Franco Collection

    cám ơn bạn đã chịu khó sưu tầm để share lại cho anh em !
     
    phammanhhung65 cảm ơn bài này.
  7. quastex

    quastex New Member

    Tham gia ngày:
    15/6/13
    Bài viết:
    769
    Đã được cảm ơn:
    1,372
    Re: [Kinh dị | Tâm lý | Lãng mạn] Jess Franco Collection

    [Kinh dị] Bloody Moon 1981 DVDRip



    [​IMG]


    [​IMG]

    [​IMG]
    [​IMG]
    Mã:
    General
    Complete name                            : D:\Pi018\Jess Franco Collection\BloodyMoon[1981].avi
    Format                                   : AVI
    Format/Info                              : Audio Video Interleave
    File size                                : 901 MiB
    Duration                                 : 1h 25mn
    Overall bit rate                         : 1 482 Kbps
    Writing application                      : VirtualDubMod 1.5.4.1 (build 2178/release)
    Writing library                          : VirtualDubMod build 2178/release
    
    Video
    ID                                       : 0
    Format                                   : MPEG-4 Visual
    Format profile                           : Advanced Simple@L5
    Format settings, BVOP                    : 1
    Format settings, QPel                    : No
    Format settings, GMC                     : No warppoints
    Format settings, Matrix                  : Custom
    Codec ID                                 : XVID
    Codec ID/Hint                            : XviD
    Duration                                 : 1h 25mn
    Bit rate                                 : 1 284 Kbps
    Width                                    : 704 pixels
    Height                                   : 400 pixels
    Display aspect ratio                     : 16:9
    Frame rate                               : 23.976 fps
    Color space                              : YUV
    Chroma subsampling                       : 4:2:0
    Bit depth                                : 8 bits
    Scan type                                : Progressive
    Compression mode                         : Lossy
    Bits/(Pixel*Frame)                       : 0.190
    Stream size                              : 781 MiB (87%)
    Writing library                          : XviD 63
    
    Audio
    ID                                       : 1
    Format                                   : AC-3
    Format/Info                              : Audio Coding 3
    Mode extension                           : CM (complete main)
    Format settings, Endianness              : Big
    Codec ID                                 : 2000
    Duration                                 : 1h 25mn
    Bit rate mode                            : Constant
    Bit rate                                 : 192 Kbps
    Channel(s)                               : 2 channels
    Channel positions                        : Front: L R
    Sampling rate                            : 48.0 KHz
    Bit depth                                : 16 bits
    Compression mode                         : Lossy
    Stream size                              : 117 MiB (13%)
    Alignment                                : Split accross interleaves
    Interleave, duration                     : 96 ms (2.30 video frames)
    Interleave, preload duration             : 96 ms
    Language                                 : English
    
    
    [​IMG]
    [​IMG]

    [​IMG]
    [video=youtube;VrfU85TeDOo]http://www.youtube.com/watch?v=VrfU85TeDOo[/video]

    [​IMG]


    [​IMG]

    [​IMG]



    [​IMG]
    Link tải phim
    Update
     
    Chỉnh sửa cuối: 21/6/13
  8. quochuy1996

    quochuy1996 Well-Known Member

    Tham gia ngày:
    10/5/10
    Bài viết:
    2,429
    Đã được cảm ơn:
    21,032
    Re: [Kinh dị | Tâm lý | Lãng mạn] Jess Franco Collection

    Link phim không tồn tại trong hệ thống, bác kiểm tra lại
    [Kinh dị] Bloody Moon 1981 DVDRip
    Tôi cũng đã xem 1 số phim của J. Franco, nay hy vọng có đủ những phim còn thiếu. Cám ơn
     
    phammanhhung65 cảm ơn bài này.
  9. quastex

    quastex New Member

    Tham gia ngày:
    15/6/13
    Bài viết:
    769
    Đã được cảm ơn:
    1,372
    Re: [Kinh dị | Tâm lý | Lãng mạn] Jess Franco Collection

    Sorry lúc post không kiểm tra lại, để mình up lại, thanks.
     
  10. quastex

    quastex New Member

    Tham gia ngày:
    15/6/13
    Bài viết:
    769
    Đã được cảm ơn:
    1,372
    Re: [Kinh dị | Tâm lý | Lãng mạn] Jess Franco Collection

    Đã up lại link mới, mời bạn.
     
  11. quastex

    quastex New Member

    Tham gia ngày:
    15/6/13
    Bài viết:
    769
    Đã được cảm ơn:
    1,372
    Re: [Kinh dị | Tâm lý | Lãng mạn] Jess Franco Collection

    [Hành động | Trinh thám | Tội phạm] Blue Rita (das frauenhaus) 1977 DVDrip - Bẫy lầu xanh




    [​IMG]


    [​IMG]

    [​IMG]
    [​IMG]
    Mã:
    General
    Complete name                            : D:\Pi018\Jess Franco Collection\BlueRita[1977].avi
    Format                                   : AVI
    Format/Info                              : Audio Video Interleave
    File size                                : 901 MiB
    Duration                                 : 1h 15mn
    Overall bit rate                         : 1 673 Kbps
    Writing application                      : VirtualDubMod 1.5.4.1 (build 2178/release)
    Writing library                          : VirtualDubMod build 2178/release
    
    Video
    ID                                       : 0
    Format                                   : MPEG-4 Visual
    Format profile                           : Advanced Simple@L5
    Format settings, BVOP                    : No
    Format settings, QPel                    : No
    Format settings, GMC                     : No warppoints
    Format settings, Matrix                  : Custom
    Codec ID                                 : XVID
    Codec ID/Hint                            : XviD
    Duration                                 : 1h 15mn
    Bit rate                                 : 1 474 Kbps
    Width                                    : 704 pixels
    Height                                   : 400 pixels
    Display aspect ratio                     : 16:9
    Frame rate                               : 25.000 fps
    Color space                              : YUV
    Chroma subsampling                       : 4:2:0
    Bit depth                                : 8 bits
    Scan type                                : Progressive
    Compression mode                         : Lossy
    Bits/(Pixel*Frame)                       : 0.209
    Stream size                              : 794 MiB (88%)
    Writing library                          : XviD 63
    
    Audio
    ID                                       : 1
    Format                                   : AC-3
    Format/Info                              : Audio Coding 3
    Mode extension                           : CM (complete main)
    Format settings, Endianness              : Big
    Codec ID                                 : 2000
    Duration                                 : 1h 15mn
    Bit rate mode                            : Constant
    Bit rate                                 : 192 Kbps
    Channel(s)                               : 2 channels
    Channel positions                        : Front: L R
    Sampling rate                            : 48.0 KHz
    Bit depth                                : 16 bits
    Compression mode                         : Lossy
    Stream size                              : 103 MiB (11%)
    Alignment                                : Split accross interleaves
    Interleave, duration                     : 96 ms (2.40 video frames)
    Interleave, preload duration             : 96 ms
    Language                                 : English
    
    [​IMG]
    [​IMG]


    [​IMG]
    [video=youtube;scy38lBTfAo]http://www.youtube.com/watch?v=scy38lBTfAo[/video]

    [​IMG]


    [​IMG]

    [​IMG]





    [​IMG]
    Link tải phim
    Update
     
  12. nghung4f

    nghung4f Active Member

    Tham gia ngày:
    20/9/11
    Bài viết:
    208
    Đã được cảm ơn:
    52
    Nghề nghiệp:
    THiết kế
    Nơi ở:
    Vietnam
    Re: [Kinh dị | Tâm lý | Lãng mạn] Jess Franco Collection

    Thể loại này cũng hay , kinh dị pha hình sự và tươi mát ! thanks đã share !
     
    phammanhhung65 cảm ơn bài này.
  13. quastex

    quastex New Member

    Tham gia ngày:
    15/6/13
    Bài viết:
    769
    Đã được cảm ơn:
    1,372
    Re: [Kinh dị | Tâm lý | Lãng mạn] Jess Franco Collection

    Thể loại yêu thích của em mờ........
     
  14. quastex

    quastex New Member

    Tham gia ngày:
    15/6/13
    Bài viết:
    769
    Đã được cảm ơn:
    1,372
    Re: [Kinh dị | Tâm lý | Lãng mạn] Jess Franco Collection

    [Kinh dị | Phiêu lưu | Trinh thám] Devil Hunter 1980 DVDrip



    [​IMG]


    [​IMG]

    [​IMG]
    [​IMG]
    Mã:
    General
    Complete name                            : D:\Pi018\Jess Franco Collection\DevilHunter[1980].avi
    Format                                   : AVI
    Format/Info                              : Audio Video Interleave
    File size                                : 901 MiB
    Duration                                 : 1h 42mn
    Overall bit rate                         : 1 231 Kbps
    Writing application                      : VirtualDubMod 1.5.4.1 (build 2178/release)
    Writing library                          : VirtualDubMod build 2178/release
    
    Video
    ID                                       : 0
    Format                                   : MPEG-4 Visual
    Format profile                           : Advanced Simple@L5
    Format settings, BVOP                    : 1
    Format settings, QPel                    : No
    Format settings, GMC                     : No warppoints
    Format settings, Matrix                  : Custom
    Codec ID                                 : XVID
    Codec ID/Hint                            : XviD
    Duration                                 : 1h 42mn
    Bit rate                                 : 1 032 Kbps
    Width                                    : 704 pixels
    Height                                   : 432 pixels
    Display aspect ratio                     : 1.630
    Frame rate                               : 23.976 fps
    Color space                              : YUV
    Chroma subsampling                       : 4:2:0
    Bit depth                                : 8 bits
    Scan type                                : Progressive
    Compression mode                         : Lossy
    Bits/(Pixel*Frame)                       : 0.142
    Stream size                              : 756 MiB (84%)
    Writing library                          : XviD 63
    
    Audio
    ID                                       : 1
    Format                                   : AC-3
    Format/Info                              : Audio Coding 3
    Mode extension                           : CM (complete main)
    Format settings, Endianness              : Big
    Codec ID                                 : 2000
    Duration                                 : 1h 42mn
    Bit rate mode                            : Constant
    Bit rate                                 : 192 Kbps
    Channel(s)                               : 2 channels
    Channel positions                        : Front: L R
    Sampling rate                            : 48.0 KHz
    Bit depth                                : 16 bits
    Compression mode                         : Lossy
    Stream size                              : 141 MiB (16%)
    Alignment                                : Split accross interleaves
    Interleave, duration                     : 96 ms (2.30 video frames)
    Interleave, preload duration             : 96 ms
    Language                                 : English
    
    [​IMG]
    [​IMG]

    [​IMG]
    [video=youtube;rkVU-g6Z3wE]http://www.youtube.com/watch?v=rkVU-g6Z3wE[/video]

    [​IMG]


    [​IMG]

    [​IMG]




    [​IMG]
     
  15. quastex

    quastex New Member

    Tham gia ngày:
    15/6/13
    Bài viết:
    769
    Đã được cảm ơn:
    1,372
    Re: [Kinh dị | Tâm lý | Lãng mạn] Jess Franco Collection

    [Kinh dị | Giả tưởng] Diabolical Dr Z (Miss Muerte) 1965 DVDRip



    [​IMG]


    [​IMG]

    [​IMG]
    [​IMG]
    Mã:
    General
    Complete name                            : D:\Pi018\Jess Franco Collection\DiabolicalDrZ[1965].avi
    Format                                   : AVI
    Format/Info                              : Audio Video Interleave
    File size                                : 901 MiB
    Duration                                 : 1h 23mn
    Overall bit rate                         : 1 515 Kbps
    Writing application                      : VirtualDubMod 1.5.4.1 (build 2178/release)
    Writing library                          : VirtualDubMod build 2178/release
    
    Video
    ID                                       : 0
    Format                                   : MPEG-4 Visual
    Format profile                           : Advanced Simple@L5
    Format settings, BVOP                    : 1
    Format settings, QPel                    : No
    Format settings, GMC                     : No warppoints
    Format settings, Matrix                  : Custom
    Codec ID                                 : XVID
    Codec ID/Hint                            : XviD
    Duration                                 : 1h 23mn
    Bit rate                                 : 1 059 Kbps
    Width                                    : 704 pixels
    Height                                   : 416 pixels
    Display aspect ratio                     : 1.692
    Frame rate                               : 29.970 fps
    Color space                              : YUV
    Chroma subsampling                       : 4:2:0
    Bit depth                                : 8 bits
    Scan type                                : Progressive
    Compression mode                         : Lossy
    Bits/(Pixel*Frame)                       : 0.121
    Stream size                              : 630 MiB (70%)
    Writing library                          : XviD 63
    
    Audio
    ID                                       : 1
    Format                                   : AC-3
    Format/Info                              : Audio Coding 3
    Mode extension                           : CM (complete main)
    Format settings, Endianness              : Big
    Codec ID                                 : 2000
    Duration                                 : 1h 23mn
    Bit rate mode                            : Constant
    Bit rate                                 : 448 Kbps
    Channel(s)                               : 2 channels
    Channel positions                        : Front: L R
    Sampling rate                            : 48.0 KHz
    Bit depth                                : 16 bits
    Compression mode                         : Lossy
    Stream size                              : 266 MiB (30%)
    Alignment                                : Split accross interleaves
    Interleave, duration                     : 96 ms (2.88 video frames)
    Interleave, preload duration             : 96 ms
    Language                                 : English
    
    [​IMG]
    [​IMG]

    [​IMG]
    [video=youtube;011MdGFLScE]http://www.youtube.com/watch?v=011MdGFLScE[/video]

    [​IMG]


    [​IMG]

    [​IMG]



    [​IMG]
     
  16. quastex

    quastex New Member

    Tham gia ngày:
    15/6/13
    Bài viết:
    769
    Đã được cảm ơn:
    1,372
    Re: [Kinh dị | Tâm lý | Lãng mạn] Jess Franco Collection

    [Hành động | Phiêu lưu | Kinh dị] Diamonds of Kilimandjaro 1983 DVDRip



    [​IMG]


    [​IMG]

    [​IMG]
    [​IMG]
    Mã:
    General
    Complete name                            : D:\Pi018\Jess Franco Collection\DiamondsofKilimandjaro[1983].avi
    Format                                   : AVI
    Format/Info                              : Audio Video Interleave
    File size                                : 901 MiB
    Duration                                 : 1h 35mn
    Overall bit rate                         : 1 317 Kbps
    Writing application                      : VirtualDubMod 1.5.4.1 (build 2178/release)
    Writing library                          : VirtualDubMod build 2178/release
    
    Video
    ID                                       : 0
    Format                                   : MPEG-4 Visual
    Format profile                           : Advanced Simple@L5
    Format settings, BVOP                    : 1
    Format settings, QPel                    : No
    Format settings, GMC                     : No warppoints
    Format settings, Matrix                  : Custom
    Codec ID                                 : XVID
    Codec ID/Hint                            : XviD
    Duration                                 : 1h 35mn
    Bit rate                                 : 1 118 Kbps
    Width                                    : 704 pixels
    Height                                   : 400 pixels
    Display aspect ratio                     : 16:9
    Frame rate                               : 23.976 fps
    Color space                              : YUV
    Chroma subsampling                       : 4:2:0
    Bit depth                                : 8 bits
    Scan type                                : Progressive
    Compression mode                         : Lossy
    Bits/(Pixel*Frame)                       : 0.166
    Stream size                              : 765 MiB (85%)
    Writing library                          : XviD 63
    
    Audio
    ID                                       : 1
    Format                                   : AC-3
    Format/Info                              : Audio Coding 3
    Mode extension                           : CM (complete main)
    Format settings, Endianness              : Big
    Codec ID                                 : 2000
    Duration                                 : 1h 35mn
    Bit rate mode                            : Constant
    Bit rate                                 : 192 Kbps
    Channel(s)                               : 2 channels
    Channel positions                        : Front: L R
    Sampling rate                            : 48.0 KHz
    Bit depth                                : 16 bits
    Compression mode                         : Lossy
    Stream size                              : 131 MiB (15%)
    Alignment                                : Split accross interleaves
    Interleave, duration                     : 96 ms (2.30 video frames)
    Interleave, preload duration             : 96 ms
    Language                                 : English
    
    
    [​IMG]
    [​IMG]


    [​IMG]
    [video=youtube;HQBr5zaYPCU]http://www.youtube.com/watch?v=HQBr5zaYPCU[/video]

    [​IMG]


    [​IMG]

    [​IMG]

     
  17. quastex

    quastex New Member

    Tham gia ngày:
    15/6/13
    Bài viết:
    769
    Đã được cảm ơn:
    1,372
    Re: [Kinh dị | Tâm lý | Lãng mạn] Jess Franco Collection

    [Adul | Kinh dị] Doriana Grey (Die Marquise von Sade) 1976 DVDRip



    [​IMG]


    [​IMG]

    [​IMG]
    [​IMG]
    Mã:
    General
    Complete name                            : D:\Pi018\Jess Franco Collection\DorianaGrey[1976].avi
    Format                                   : AVI
    Format/Info                              : Audio Video Interleave
    File size                                : 901 MiB
    Duration                                 : 1h 19mn
    Overall bit rate                         : 1 594 Kbps
    Writing application                      : VirtualDubMod 1.5.4.1 (build 2178/release)
    Writing library                          : VirtualDubMod build 2178/release
    
    Video
    ID                                       : 0
    Format                                   : MPEG-4 Visual
    Format profile                           : Advanced Simple@L5
    Format settings, BVOP                    : 1
    Format settings, QPel                    : No
    Format settings, GMC                     : No warppoints
    Format settings, Matrix                  : Custom
    Codec ID                                 : XVID
    Codec ID/Hint                            : XviD
    Duration                                 : 1h 19mn
    Bit rate                                 : 1 395 Kbps
    Width                                    : 704 pixels
    Height                                   : 400 pixels
    Display aspect ratio                     : 16:9
    Frame rate                               : 23.976 fps
    Color space                              : YUV
    Chroma subsampling                       : 4:2:0
    Bit depth                                : 8 bits
    Scan type                                : Progressive
    Compression mode                         : Lossy
    Bits/(Pixel*Frame)                       : 0.207
    Stream size                              : 789 MiB (88%)
    Writing library                          : XviD 63
    
    Audio
    ID                                       : 1
    Format                                   : AC-3
    Format/Info                              : Audio Coding 3
    Mode extension                           : CM (complete main)
    Format settings, Endianness              : Big
    Codec ID                                 : 2000
    Duration                                 : 1h 19mn
    Bit rate mode                            : Constant
    Bit rate                                 : 192 Kbps
    Channel(s)                               : 2 channels
    Channel positions                        : Front: L R
    Sampling rate                            : 48.0 KHz
    Bit depth                                : 16 bits
    Compression mode                         : Lossy
    Stream size                              : 109 MiB (12%)
    Alignment                                : Split accross interleaves
    Interleave, duration                     : 96 ms (2.30 video frames)
    Interleave, preload duration             : 96 ms
    Language                                 : English
    
     
    ieskei, thbinh80, mydaden and 13 others like this.
  18. quastex

    quastex New Member

    Tham gia ngày:
    15/6/13
    Bài viết:
    769
    Đã được cảm ơn:
    1,372
    Re: [Kinh dị | Tâm lý | Lãng mạn] Jess Franco Collection

    [Hài | Tội phạm] Downtown - Die nackten Puppen der Unterwelt 1975 DVDRip



    [​IMG]


    [​IMG]
    [​IMG]
    [​IMG]
    Mã:
    General
    Complete name                            : D:\Pi018\Jess Franco Collection\DownTown[1975].avi
    Format                                   : AVI
    Format/Info                              : Audio Video Interleave
    File size                                : 900 MiB
    Duration                                 : 1h 21mn
    Overall bit rate                         : 1 538 Kbps
    Writing application                      : VirtualDubMod 1.5.4.1 (build 2178/release)
    Writing library                          : VirtualDubMod build 2178/release
    
    Video
    ID                                       : 0
    Format                                   : MPEG-4 Visual
    Format profile                           : Advanced Simple@L5
    Format settings, BVOP                    : 1
    Format settings, QPel                    : No
    Format settings, GMC                     : No warppoints
    Format settings, Matrix                  : Custom
    Codec ID                                 : XVID
    Codec ID/Hint                            : XviD
    Duration                                 : 1h 21mn
    Bit rate                                 : 1 083 Kbps
    Width                                    : 704 pixels
    Height                                   : 400 pixels
    Display aspect ratio                     : 16:9
    Frame rate                               : 25.000 fps
    Color space                              : YUV
    Chroma subsampling                       : 4:2:0
    Bit depth                                : 8 bits
    Scan type                                : Progressive
    Compression mode                         : Lossy
    Bits/(Pixel*Frame)                       : 0.154
    Stream size                              : 634 MiB (70%)
    Writing library                          : XviD 63
    
    Audio
    ID                                       : 1
    Format                                   : AC-3
    Format/Info                              : Audio Coding 3
    Mode extension                           : CM (complete main)
    Format settings, Endianness              : Big
    Codec ID                                 : 2000
    Duration                                 : 1h 21mn
    Bit rate mode                            : Constant
    Bit rate                                 : 448 Kbps
    Channel(s)                               : 6 channels
    Channel positions                        : Front: L C R, Side: L R, LFE
    Sampling rate                            : 48.0 KHz
    Bit depth                                : 16 bits
    Compression mode                         : Lossy
    Stream size                              : 262 MiB (29%)
    Alignment                                : Split accross interleaves
    Interleave, duration                     : 96 ms (2.40 video frames)
    Interleave, preload duration             : 96 ms
    Language                                 : German
    
    
    [​IMG]
    [​IMG]


    [​IMG]
    [video=youtube;sPAi6gzavd0]http://www.youtube.com/watch?v=sPAi6gzavd0[/video]

    [​IMG]


    [​IMG]

    [​IMG]




    [​IMG]
     
  19. quastex

    quastex New Member

    Tham gia ngày:
    15/6/13
    Bài viết:
    769
    Đã được cảm ơn:
    1,372
    Re: [Kinh dị | Tâm lý | Lãng mạn] Jess Franco Collection

    [Hành động | Trinh thám] Ciudad Baja (Downtown Heat) 1994 DVDRip



    [​IMG]


    [​IMG]

    [​IMG]
    [​IMG]
    Mã:
    General
    Complete name                            : D:\Pi018\Jess Franco Collection\DowntownHeat[1994].avi
    Format                                   : AVI
    Format/Info                              : Audio Video Interleave
    File size                                : 901 MiB
    Duration                                 : 1h 34mn
    Overall bit rate                         : 1 333 Kbps
    Writing application                      : VirtualDubMod 1.5.4.1 (build 2178/release)
    Writing library                          : VirtualDubMod build 2178/release
    
    Video
    ID                                       : 0
    Format                                   : MPEG-4 Visual
    Format profile                           : Advanced Simple@L5
    Format settings, BVOP                    : 1
    Format settings, QPel                    : No
    Format settings, GMC                     : No warppoints
    Format settings, Matrix                  : Custom
    Codec ID                                 : XVID
    Codec ID/Hint                            : XviD
    Duration                                 : 1h 34mn
    Bit rate                                 : 879 Kbps
    Width                                    : 704 pixels
    Height                                   : 336 pixels
    Display aspect ratio                     : 2.095
    Frame rate                               : 25.000 fps
    Color space                              : YUV
    Chroma subsampling                       : 4:2:0
    Bit depth                                : 8 bits
    Scan type                                : Progressive
    Compression mode                         : Lossy
    Bits/(Pixel*Frame)                       : 0.149
    Stream size                              : 594 MiB (66%)
    Writing library                          : XviD 63
    
    Audio
    ID                                       : 1
    Format                                   : AC-3
    Format/Info                              : Audio Coding 3
    Mode extension                           : CM (complete main)
    Format settings, Endianness              : Big
    Codec ID                                 : 2000
    Duration                                 : 1h 34mn
    Bit rate mode                            : Constant
    Bit rate                                 : 448 Kbps
    Channel(s)                               : 6 channels
    Channel positions                        : Front: L C R, Side: L R, LFE
    Sampling rate                            : 48.0 KHz
    Bit depth                                : 16 bits
    Compression mode                         : Lossy
    Stream size                              : 303 MiB (34%)
    Alignment                                : Split accross interleaves
    Interleave, duration                     : 96 ms (2.40 video frames)
    Interleave, preload duration             : 96 ms
    Language                                 : English
    
    [​IMG]
    [​IMG]



    [​IMG]


    [​IMG]

    [​IMG]




    [​IMG]
    Link tải phim
    Nosub
     
    thbinh80, mydaden, KHOI PHAM and 3 others like this.
  20. quastex

    quastex New Member

    Tham gia ngày:
    15/6/13
    Bài viết:
    769
    Đã được cảm ơn:
    1,372
    Re: [Kinh dị | Tâm lý | Lãng mạn] Jess Franco Collection

    [Kinh dị] Eugenie De Sade 1970 DVDRip



    [​IMG]


    [​IMG]
    [​IMG]
    [​IMG]
    Mã:
    General
    Complete name                            : D:\Pi018\Jess Franco Collection\EugenieDeSade[1970].avi
    Format                                   : AVI
    Format/Info                              : Audio Video Interleave
    File size                                : 901 MiB
    Duration                                 : 1h 30mn
    Overall bit rate                         : 1 387 Kbps
    Writing application                      : VirtualDubMod 1.5.4.1 (build 2178/release)
    Writing library                          : VirtualDubMod build 2178/release
    
    Video
    ID                                       : 0
    Format                                   : MPEG-4 Visual
    Format profile                           : Advanced Simple@L5
    Format settings, BVOP                    : 1
    Format settings, QPel                    : No
    Format settings, GMC                     : No warppoints
    Format settings, Matrix                  : Custom
    Codec ID                                 : XVID
    Codec ID/Hint                            : XviD
    Duration                                 : 1h 30mn
    Bit rate                                 : 1 188 Kbps
    Width                                    : 704 pixels
    Height                                   : 432 pixels
    Display aspect ratio                     : 1.630
    Frame rate                               : 23.976 fps
    Color space                              : YUV
    Chroma subsampling                       : 4:2:0
    Bit depth                                : 8 bits
    Scan type                                : Progressive
    Compression mode                         : Lossy
    Bits/(Pixel*Frame)                       : 0.163
    Stream size                              : 772 MiB (86%)
    Writing library                          : XviD 63
    
    Audio
    ID                                       : 1
    Format                                   : AC-3
    Format/Info                              : Audio Coding 3
    Mode extension                           : CM (complete main)
    Format settings, Endianness              : Big
    Codec ID                                 : 2000
    Duration                                 : 1h 30mn
    Bit rate mode                            : Constant
    Bit rate                                 : 192 Kbps
    Channel(s)                               : 2 channels
    Channel positions                        : Front: L R
    Sampling rate                            : 48.0 KHz
    Bit depth                                : 16 bits
    Compression mode                         : Lossy
    Stream size                              : 125 MiB (14%)
    Alignment                                : Split accross interleaves
    Interleave, duration                     : 96 ms (2.30 video frames)
    Interleave, preload duration             : 96 ms
    Language                                 : English
    
    [​IMG]
    [​IMG]


    [​IMG]
    [video=youtube;MG74VhlmwvU]http://www.youtube.com/watch?v=MG74VhlmwvU[/video]


    [​IMG]


    [​IMG]

    [​IMG]




    [​IMG]
     
    Chỉnh sửa cuối: 29/6/13
    hiennn, him9s2cu, Lola000 and 17 others like this.

Chia sẻ trang này