[ Kinh Dị ] A Haunted House 2 2014 1080p Blu-ray Remux AVC DTS-HD MA 5 1-HDT

Thảo luận trong 'Bluray Remux' bắt đầu bởi canodinh, 5/1/24.

  1. canodinh

    canodinh Uploader

    Tham gia ngày:
    10/9/11
    Bài viết:
    22,534
    Đã được cảm ơn:
    271,505
    A Haunted House 2 2014 1080p Blu-ray Remux AVC DTS-HD MA 5 1-HDT

    [​IMG]


    Having exorcised the demons of his ex, Malcolm is starting fresh with his new girlfriend and her two children. After moving into their dream home, however, Malcolm is once again plagued by b…

    General
    Unique ID : 105919186215556746743496571276423011538 (0x4FAF4B11E4766F5A222284E07E571CD2)

    Complete name : A Haunted House 2 2014 1080p Blu-ray Remux AVC DTS-HD MA 5.1-HDT.mkv

    Format : Matroska
    Format version : Version 4 / Version 2
    File size : 21.3 GiB
    Duration : 1 h 26 min
    Overall bit rate mode : Variable
    Overall bit rate : 35.0 Mb/s
    Encoded date : UTC 2021-07-31 18:10:10
    Writing application : mkvmerge v56.1.0 ('My Friend') 64-bit
    Writing library : libebml v1.4.2 + libmatroska v1.6.4

    Video
    ID : 1
    ID in the original source medium : 4113 (0x1011)
    Format : AVC
    Format/Info : Advanced Video Codec
    Format profile : [email protected]
    Format settings : CABAC / 4 Ref Frames
    Format settings, CABAC : Yes
    Format settings, ReFrames : 4 frames
    Codec ID : V_MPEG4/ISO/AVC
    Duration : 1 h 26 min
    Bit rate mode : Variable
    Bit rate : 31.7 Mb/s
    Maximum bit rate : 35.0 Mb/s
    Width : 1 920 pixels
    Height : 1 080 pixels
    Display aspect ratio : 16:9
    Frame rate mode : Constant
    Frame rate : 23.976 (24000/1001) FPS
    Color space : YUV
    Chroma subsampling : 4:2:0
    Bit depth : 8 bits
    Scan type : Progressive
    Bits/(Pixel*Frame) : 0.638
    Stream size : 19.3 GiB (91%)
    Default : Yes
    Forced : No
    Original source medium : Blu-ray

    Audio
    ID : 2
    ID in the original source medium : 4352 (0x1100)
    Format : DTS
    Format/Info : Digital Theater Systems
    Format profile : MA / Core
    Codec ID : A_DTS
    Duration : 1 h 26 min
    Bit rate mode : Variable / Constant
    Bit rate : 3 072 kb/s / 1 509 kb/s
    Channel(s) : 6 channels
    Channel positions : Front: L C R, Side: L R, LFE
    Sampling rate : 48.0 kHz
    Frame rate : 93.750 FPS (512 SPF)
    Bit depth : 24 bits
    Compression mode : Lossless / Lossy
    Stream size : 1.90 GiB (9%)
    Language : English
    Default : Yes
    Forced : No
    Original source medium : Blu-ray

    Text #1
    ID : 3
    ID in the original source medium : 4608 (0x1200)
    Format : PGS
    Codec ID : S_HDMV/PGS
    Codec ID/Info : Picture based subtitle format used on BDs/HD-DVDs
    Duration : 1 h 19 min
    Bit rate : 71.8 kb/s
    Count of elements : 3581
    Stream size : 40.7 MiB (0%)
    Language : English
    Default : Yes
    Forced : No
    Original source medium : Blu-ray

    Text #2
    ID : 4
    ID in the original source medium : 4609 (0x1201)
    Format : PGS
    Codec ID : S_HDMV/PGS
    Codec ID/Info : Picture based subtitle format used on BDs/HD-DVDs
    Duration : 1 h 19 min
    Bit rate : 56.6 kb/s
    Count of elements : 2778
    Stream size : 32.1 MiB (0%)
    Language : Spanish
    Default : No
    Forced : No
    Original source medium : Blu-ray

    Text #3
    ID : 5
    ID in the original source medium : 4610 (0x1202)
    Format : PGS
    Codec ID : S_HDMV/PGS
    Codec ID/Info : Picture based subtitle format used on BDs/HD-DVDs
    Duration : 1 h 19 min
    Bit rate : 55.2 kb/s
    Count of elements : 2612
    Stream size : 31.2 MiB (0%)
    Language : French
    Default : No
    Forced : No
    Original source medium : Blu-ray

    Menu
    00:00:00.000 : Chapter 01
    00:03:38.176 : Chapter 02
    00:07:40.084 : Chapter 03
    00:12:18.487 : Chapter 04
    00:17:27.838 : Chapter 05
    00:23:32.661 : Chapter 06
    00:29:36.399 : Chapter 07
    00:33:52.989 : Chapter 08
    00:37:33.542 : Chapter 09
    00:40:22.002 : Chapter 10
    00:43:05.833 : Chapter 11
    00:47:35.602 : Chapter 12
    00:50:14.261 : Chapter 13
    00:55:32.120 : Chapter 14
    01:00:16.821 : Chapter 15
    01:04:35.746 : Chapter 16
    01:08:17.718 : Chapter 17
    01:12:14.371 : Chapter 18
    01:15:57.261 : Chapter 19
    01:20:03.548 : Chapter 20





    [​IMG] [​IMG]
    [​IMG] [​IMG]
    [​IMG] [​IMG]


    Fshare ~21.26 GB

    Nhấn nút Cảm ơn (dưới chân bài) để thấy link!


    4Share

    Nhấn nút Cảm ơn (dưới chân bài) để thấy link!


    Sub Việt

    https://subscene.com/subtitles/a-haunted-house-2

    Tổng hợp phim 18+

    Link topic https://hdvietnam.xyz/threads/mutil...ng-nhat-ban-au-my-cap-nhat-hang-ngay.1796232/

    Nhấn nút Cảm ơn (dưới chân bài) để thấy link!


    Tổng hợp phim full Menu (Thuyết minh+Sub Việt) bluray (nethd.org)

    Nhấn nút Cảm ơn (dưới chân bài) để thấy link!


    Tổng hợp phim bộ Lồng tiếng, thuyết minh, sub việt

    Nhấn nút Cảm ơn (dưới chân bài) để thấy link!


    Tổng hợp phim hàng ngày

    Link topic https://hdvietnam.xyz/threads/tong-hop-phim-bluray-remux-iso-cap-nhat-hang-ngay.1796055/

    Nhấn nút Cảm ơn (dưới chân bài) để thấy link!


    Tổng hợp phim bluray Remux ISO 4K






    mhd

    720p

    1080p

    Thuyết minh

    Remux

    ISO
     
  2. vopsohu

    vopsohu Member

    Tham gia ngày:
    30/12/23
    Bài viết:
    47
    Đã được cảm ơn:
    3
    Giới tính:
    Nam
    phim hài vcl xem tết là hết bài cảm ơn ông.
     

Chia sẻ trang này