[Fshare] [K-Drama] Tại sao lại là Oh Soo Jae - Why her 2022 720p WEB-DL AAC2.0 x264

Thảo luận trong 'Phim bộ - Series' bắt đầu bởi liloftbb, 25/6/22.

  1. liloftbb

    liloftbb Well-Known Member

    Tham gia ngày:
    3/6/22
    Bài viết:
    72
    Đã được cảm ơn:
    418
    Giới tính:
    Nữ
    Why Her (Tại Sao Lại Là Oh Soo Jae) là 1 bộ phim của đài SBS, thuộc thể loại tình cảm bí ẩn. Bộ phim hướng đến những người trẻ đầy tham vọng, mục tiêu, những nỗi đau và thất bại trên con đường công lý mà họ hướng đến. Phim có sự tham gia của nữ diễn viên Seo Hyun Jin, người từng gây ấn tượng với loạt phim Lại Là Em, Oh Hae Young, hay Dr. Romantic và nam diễn viên trẻ Hwang In Yeop.
    [​IMG]
    Nội dung của Why Her (Tại Sao Lại Là Oh Soo Jae) xoay quanh nhân vật Oh Soo Jae (Seo Hyun Jin) là một nữ luật sư tài năng, sớm sẽ trở thành cộng sự trẻ tuổi nhất tại Công ty Luật TK. Công ty luật được nhiều người coi là tốt nhất ở Hàn Quốc. Oh Soo Jae bị thúc đẩy bởi mong muốn thắng kiện và cả những nguyên tắc tự cho mình là đúng. Cô ấy đã sống hết mình để đạt được thành công, nhưng cô ấy vướng vào một trường hợp bất ngờ và cô ấy bị giáng chức xuống làm trợ giảng tại một trường luật.
    Tại trường luật, Oh Soo Jae gặp Gong Chan (Hwang In Yeop), một sinh viên ở đó. Gong Chan đã trải qua một quá khứ đau buồn, nhưng anh vẫn có một trái tim ấm áp. Anh ấy yêu Oh Soo Jae và anh ấy sẽ làm bất cứ điều gì cho cô ấy. Ngoài ra bên cạnh cô nàng còn có các học sinh giỏi nhất tại ngôi trường luật này để ngăn chặn những âm mưu từ Choi Tae Kook (Heo Jun Ho), chủ tịch của Công ty Luật TK. Người sẽ làm bất cứ điều gì để thỏa mãn ham muốn của mình, ngay cả khi điều đó là bất hợp pháp hay trái đạo đức.
    [​IMG]
    [​IMG]
    [​IMG]

    Mã:
    General
    Complete name               : Tại sao lại là Oh Soo Jae - Why her 2022 720p WEB-DL AAC2.0 x264
    Format                      : MPEG-4
    Format profile              : Base Media
    Codec ID                    : isom (isom/iso2/avc1/mp41)
    File size                   : 315 MiB
    Duration                    : 59 min 56 s
    Overall bit rate            : 735 kb/s
    Writing application         : Lavf59.20.101
    
    
    Video
    ID                          : 1
    Format                      : AVC
    Format/Info                 : Advanced Video Codec
    Format profile              : [email protected]
    Format settings             : CABAC / 4 Ref Frames
    Format settings, CABAC      : Yes
    Format settings, Reference  : 4 frames
    Codec ID                    : avc1
    Codec ID/Info               : Advanced Video Coding
    Duration                    : 59 min 56 s
    Bit rate                    : 598 kb/s
    Width                       : 1 280 pixels
    Height                      : 720 pixels
    Display aspect ratio        : 16:9
    Frame rate mode             : Constant
    Frame rate                  : 29.970 (30000/1001) FPS
    Color space                 : YUV
    Chroma subsampling          : 4:2:0
    Bit depth                   : 8 bits
    Scan type                   : Progressive
    Bits/(Pixel*Frame)          : 0.022
    Stream size                 : 256 MiB (81%)
    Writing library             : x264 core 157 r2935 545de2f
    Codec configuration box     : avcC
    Audio
    ID                          : 2
    Format                      : AAC LC
    Format/Info                 : Advanced Audio Codec Low Complexity
    Codec ID                    : mp4a-40-2
    Duration                    : 59 min 56 s
    Bit rate mode               : Constant
    Bit rate                    : 128 kb/s
    Channel(s)                  : 2 channels
    Channel layout              : L R
    Sampling rate               : 48.0 kHz
    Frame rate                  : 46.875 FPS (1024 SPF)
    Compression mode            : Lossy
    Stream size                 : 55.1 MiB (17%)
    Default                     : Yes
    Alternate group             : 1
    
    LINK DOWNLOAD:
    Vietsub (16/16)
    Nhấn nút Cảm ơn (dưới chân bài) để thấy link!

     
    Chỉnh sửa cuối: 2/10/22
  2. liloftbb

    liloftbb Well-Known Member

    Tham gia ngày:
    3/6/22
    Bài viết:
    72
    Đã được cảm ơn:
    418
    Giới tính:
    Nữ
    updated ep 8
     
  3. Risket1

    Risket1 Active Member

    Tham gia ngày:
    29/1/11
    Bài viết:
    306
    Đã được cảm ơn:
    71
    Giới tính:
    Nam
    Nghề nghiệp:
    Chuyên Viên
    Nơi ở:
    Việt Nam
    Hình như tập 5 bị lỗi đó bác, hình 1 nơi câu chữ phụ đề 1 nơi tầm 20-30p...bác xem lại thử
     
  4. liloftbb

    liloftbb Well-Known Member

    Tham gia ngày:
    3/6/22
    Bài viết:
    72
    Đã được cảm ơn:
    418
    Giới tính:
    Nữ
    tui chỉnh lại rồi á bác, cám ơn bác nhìu nhoaa
     
    thietcr7 and Risket1 like this.
  5. thietcr7

    thietcr7 Member

    Tham gia ngày:
    14/6/20
    Bài viết:
    67
    Đã được cảm ơn:
    19
    Giới tính:
    Nam
    bác ơi có 9 10 chưa
     
  6. liloftbb

    liloftbb Well-Known Member

    Tham gia ngày:
    3/6/22
    Bài viết:
    72
    Đã được cảm ơn:
    418
    Giới tính:
    Nữ
    có rùi nhe bác ơi
     
  7. liloftbb

    liloftbb Well-Known Member

    Tham gia ngày:
    3/6/22
    Bài viết:
    72
    Đã được cảm ơn:
    418
    Giới tính:
    Nữ
    updated ep 11
     
    Tunggiang1805 cảm ơn bài này.
  8. liloftbb

    liloftbb Well-Known Member

    Tham gia ngày:
    3/6/22
    Bài viết:
    72
    Đã được cảm ơn:
    418
    Giới tính:
    Nữ
    updated ep 12,13,14
     
  9. liloftbb

    liloftbb Well-Known Member

    Tham gia ngày:
    3/6/22
    Bài viết:
    72
    Đã được cảm ơn:
    418
    Giới tính:
    Nữ
    updated ep 15,16 end
     

Chia sẻ trang này