[Fshare] [JTBC|Tội phạm|2022] Kẻ Nội Gián - Insider - 1080p - Lồng Tiếng + Phụ Đề - 16 Tập

Thảo luận trong 'Phim bộ - Series' bắt đầu bởi Pphimpp, 31/10/22.

  1. Pphimpp

    Pphimpp Well-Known Member

    Tham gia ngày:
    15/11/13
    Bài viết:
    5,657
    Đã được cảm ơn:
    36,893
    Giới tính:
    Nam
    Kẻ Nội Gián
    [jTBC] Insider 인사이더 2022 [VieDUB+SUB]
    [​IMG]
    [​IMG]
    1080P - LỒNG TIẾNG + PHỤ ĐỀ
    16 TẬP [Completed]

    Nhấn nút Cảm ơn (dưới chân bài) để thấy link!

    THÔNG TIN - NỘI DUNG
    Tên tiếng Việt: Kẻ Nội Gián
    Tên tiếng Anh: Insider
    Năm sản xuất: 2022
    Nhà sản xuất: jTBC | Hàn Quốc
    Số tập: 16
    Đạo diễn: Min Yeon-Hong
    Diễn viên: Lee Yoo Young, Kang Ha Neul, Phạm Băng Băng,...
    Kịch tính đến nghẹt thở với "Kẻ nội gián"

    Căng thẳng những cuộc cân não, kịch tính những trận chiến tâm lý, nghẹt thở với những pha hành động đầy gay cấn - đó là những gì sẽ có trong bộ phim tâm lý hành động hứa hẹn nhiều hấp dẫn của Hàn Quốc, "Kẻ nội gián".

    "Kẻ nội gián" (Tựa tiếng Anh: Insider) là một bộ phim hành động kịch tính kể về Kim Yo Han (Kang Ha Neul đóng), một thực tập sinh tư pháp sắp tốt nghiệp nhưng phải đối mặt với một cuộc khủng hoảng khi đang bí mật điều tra một công tố viên tham nhũng. Để có thể thâm nhập sâu vào thế giới tội phạm, Yo Han bước vào con đường làm "kẻ nội gián" với hy vọng tiến sâu vào hang hùm, tiếp cận những ông trùm.

    Theo đó, quý khán giả sẽ có cơ hội được đồng hành với Yo Han qua những thước phim căng thẳng của những cuộc cân não, kịch tính với những trận chiến tâm lý. Phim không thiếu những pha hành động nghẹt thở, gay cấn.

    Hành trình của Ya Han khởi đầu bằng một sự phản bội, anh bị bỏ rơi trong tù. Để có thể thay đổi được số phận chính mình, Yo Han vật lộn để tồn tại và xây dựng kế hoạch trả thù. Diễn viên thủ vai Yo Han là Kang Ha Neul. Anh là gương mặt trẻ đầy thực lực có tên tuổi gắn liền với nhiều bộ phim được yêu thích: "Mùi đời: Cuộc sống không trọn vẹn", "Tuổi 20", "Người tình ánh trăng", "Khi hoa trà nở"....

    Trong khi đó, người trở thành đồng minh và là hậu phương vững chắc cho Yo Han chính là Oh Soo Yeon (Lee Yoo Young thủ vai), một nữ doanh nhân có sức ảnh hưởng lớn trong giới và có chung kẻ thù với Ya Han. Soo Yeon sớm đã tạo lập nên một đế chế tài chính cho chính mình, cùng với "con dao sắc" Yo Han, họ "song kiếm hợp bích" để cùng nhau lật đổ các thế lực chi phối quyền lực ngầm.

    Nói về nữ diễn viên Lee Yoo Young, người thủ vai nhân vật Soo Yeon, không thể không nhắc đến những vai diễn nặng kí, tâm lý phức tạp mà cô từng đảm nhận, có thể kể đến "Đường hầm", "Hào quang đánh cắp"... Màn kết hợp giữa hai diễn viên tài năng cùng cốt truyện lôi cuốn hứa hẹn sẽ đem đến cho người xem những thước phim ấn tượng. Đón xem "Kẻ nội gián" vào 13g các ngày thứ Hai đến thứ Bảy hàng tuần trên kênh HTV7, từ 29/10.
    ....

    MEDIAINFO

    General
    Complete name : Insider.E01.ViE.1080p.WEB-DL.AAC.H.264-Taengoo_PPhim.mkv
    Format : Matroska
    Format version : Version 4
    File size : 1.93 GiB
    Duration : 1 h 3 min
    Overall bit rate mode : Variable
    Overall bit rate : 4 334 kb/s
    Movie name : JTBC|2022 Insider E01 ViE PPhim
    Encoded date : UTC 2022-10-31 07:34:43
    Writing application : mkvmerge v68.0.0 ('The Curtain') 64-bit
    Writing library : libebml v1.4.2 + libmatroska v1.6.4
    Video
    ID : 1
    Format : AVC
    Format/Info : Advanced Video Codec
    Format profile : High@L4
    Format settings : CABAC / 1 Ref Frames
    Format settings, CABAC : Yes
    Format settings, Reference : 1 frame
    Format settings, GOP : M=1, N=60
    Codec ID : V_MPEG4/ISO/AVC
    Duration : 1 h 3 min
    Bit rate mode : Variable
    Bit rate : 4 011 kb/s
    Maximum bit rate : 5 500 kb/s
    Width : 1 920 pixels
    Height : 1 080 pixels
    Display aspect ratio : 16:9
    Frame rate mode : Constant
    Frame rate : 29.970 (30000/1001) FPS
    Color space : YUV
    Chroma subsampling : 4:2:0
    Bit depth : 8 bits
    Scan type : Progressive
    Bits/(Pixel*Frame) : 0.065
    Stream size : 1.79 GiB (93%)
    Default : Yes
    Forced : No
    Audio #1
    ID : 2
    Format : AC-3
    Format/Info : Audio Coding 3
    Commercial name : Dolby Digital
    Codec ID : A_AC3
    Duration : 1 h 3 min
    Bit rate mode : Constant
    Bit rate : 192 kb/s
    Channel(s) : 2 channels
    Channel layout : L R
    Sampling rate : 48.0 kHz
    Frame rate : 31.250 FPS (1536 SPF)
    Compression mode : Lossy
    Stream size : 87.8 MiB (4%)
    Title : PPhim
    Language : Vietnamese
    Service kind : Complete Main
    Default : Yes
    Forced : No
    Audio #2
    ID : 3
    Format : AAC LC
    Format/Info : Advanced Audio Codec Low Complexity
    Codec ID : A_AAC-2
    Duration : 1 h 3 min
    Bit rate : 128 kb/s
    Channel(s) : 2 channels
    Channel layout : L R
    Sampling rate : 48.0 kHz
    Frame rate : 46.875 FPS (1024 SPF)
    Compression mode : Lossy
    Stream size : 58.5 MiB (3%)
    Language : Korean
    Default : No
    Forced : No
    Text
    ID : 4
    Format : UTF-8
    Codec ID : S_TEXT/UTF8
    Codec ID/Info : UTF-8 Plain Text
    Duration : 1 h 3 min
    Bit rate : 64 b/s
    Count of elements : 765
    Stream size : 29.9 KiB (0%)
    Language : Vietnamese
    Default : No
    Forced : No

    TRAILER

    SCREENSHOT
    [​IMG]

    CHÚC CÁC BẠN XEM PHIM VUI VẺ!
     
    Chỉnh sửa cuối: 30/1/23
  2. Pphimpp

    Pphimpp Well-Known Member

    Tham gia ngày:
    15/11/13
    Bài viết:
    5,657
    Đã được cảm ơn:
    36,893
    Giới tính:
    Nam
  3. Pphimpp

    Pphimpp Well-Known Member

    Tham gia ngày:
    15/11/13
    Bài viết:
    5,657
    Đã được cảm ơn:
    36,893
    Giới tính:
    Nam
    T3-6.
     
    langdu01, loctran999 and Zjck like this.
  4. nguoi khong ten

    nguoi khong ten New Member

    Tham gia ngày:
    10/1/10
    Bài viết:
    2
    Đã được cảm ơn:
    1
    xin cam on
     
    Pphimpp cảm ơn bài này.
  5. Pphimpp

    Pphimpp Well-Known Member

    Tham gia ngày:
    15/11/13
    Bài viết:
    5,657
    Đã được cảm ơn:
    36,893
    Giới tính:
    Nam
    T7-9.
     
    langdu01 cảm ơn bài này.
  6. langdu01

    langdu01 Well-Known Member

    Tham gia ngày:
    29/5/11
    Bài viết:
    1,385
    Đã được cảm ơn:
    673
    Fshare thời gian này lỗi nhiều quá! 5 files đã có 3 files lỗi rồi. Pphim, bạn có thể reup lại tập 8 ko? File ko hiện dung lượng để download. Thanks bạn.
     
    Pphimpp cảm ơn bài này.
  7. Pphimpp

    Pphimpp Well-Known Member

    Tham gia ngày:
    15/11/13
    Bài viết:
    5,657
    Đã được cảm ơn:
    36,893
    Giới tính:
    Nam
    Đã reup bạn, hình như nó qua server download048. là sẽ lỗi :mad:
     
    langdu01 cảm ơn bài này.
  8. Pphimpp

    Pphimpp Well-Known Member

    Tham gia ngày:
    15/11/13
    Bài viết:
    5,657
    Đã được cảm ơn:
    36,893
    Giới tính:
    Nam
    Tập 10-12.
     
  9. Pphimpp

    Pphimpp Well-Known Member

    Tham gia ngày:
    15/11/13
    Bài viết:
    5,657
    Đã được cảm ơn:
    36,893
    Giới tính:
    Nam
    Đang upload những tập cuối, chúc mọi người xem phim vui vẻ!
     
    langdu01 and langduking like this.
  10. langdu01

    langdu01 Well-Known Member

    Tham gia ngày:
    29/5/11
    Bài viết:
    1,385
    Đã được cảm ơn:
    673
    Đã down được rồi, thanks
     
    Pphimpp cảm ơn bài này.
  11. Pphimpp

    Pphimpp Well-Known Member

    Tham gia ngày:
    15/11/13
    Bài viết:
    5,657
    Đã được cảm ơn:
    36,893
    Giới tính:
    Nam
    Dạo này bị báo lỗi này hoài luôn, chắc con server của fshare gặp lỗi nữa hic..
     
    langdu01 cảm ơn bài này.

Chia sẻ trang này